Черная месса / Black Mass (2015) WEB-DLRip [H.264] [Line] скачать торрент

Мировая классика кино, Rip, Рипы, Зарубежные фильмы

Модератор: Модераторы видео

  • Статистика раздачи
Размер: 2.05 ГБ   |  Зарегистрирован: 13 янв 2016, 02:52   |   .torrent скачан: 31 раз
Сидеров: 201  [ 0 байт/сек ]     Личеров: 1  [ 0 байт/сек ]  
Список файлов : Кто скачал : Раздают : Скачивают : Кто благодарил : История : Не раздающие : Запрашивали сидеров : Внешние трекеры 
  

Черная месса / Black Mass (2015) WEB-DLRip [H.264] [Line]

Сообщение Админ » 13 янв 2016, 02:52

Черная месса / Black Mass (2015) WEB-DLRip [H.264] [Line]

Производство: США, Великобритания
Жанр: Драма, криминал, биография, экранизация

Режиссер: Скотт Купер
Продюсер: Скотт Купер, Джон Лешер, Патрик МакКормик
Актеры: Джонни Депп, Джоэл Эдгертон, Бенедикт Камбербэтч, Кевин Бейкон, Джесси Племонс, Питер Сарсгаард, Кори Столл, Дакота Джонсон, Рори Кокрейн, Дэвид Харбор

Описание:
Картина расскажет об Уайти Балджере, знаменитом бостонском гангстере, который 16 лет находился в бегах и был арестован в июне 2011 года в Санта-Монике. Балджер, которому уже за 80, обвинялся в рэкете, был замешан в 19 убийствах и в то же время работал информатором на ФБР. Чтобы не попасть за решетку, он исчез в 1995 году и 16 лет успешно скрывался от правосудия.


Дата мировой премьеры: 4 сентября 2015
Дата премьеры в России: 29 октября 2015, «Каро-Премьер»
Дата выхода DVD/Blu-ray релиза: 31 декабря 2015, «CP Дистрибуция»

Продолжительность: 02:02:34
Качество видео: WEB-DLRip
Перевод: Дублированный (Чистый звук)
Язык субтитров: Русский (реклама)
Вид субтитров: Вшитые, отключаемые
Реклама: Присутствуют голосовые и текстовые вставки рекламы.

Видео: AVC/H.264, 1024x426, ~2200 kbps
Аудио: AC3, 2 ch, 192 Кбит/с, CBR
Семпл: Скачать
Код:
Код: Выделить всё
General
Unique ID                      : 230021937271915397018237467907619432950 (0xAD0C9D1A832115ED988160B0155E29F6)
Complete name                  : D:\Downloading\Black.Mass.2015.D.WEB-DLRip.(AVC).mkv
Format                         : Matroska
Format version                 : Version 4 / Version 2
File size                      : 2.05 GiB
Duration                       : 2h 2mn
Overall bit rate               : 2 394 Kbps
Movie name                     : EVO
Encoded date                   : UTC 2016-01-12 15:07:33 / UTC 2016-01-12 11:36:26
Writing application            : mkvmerge v8.3.0 ('Over the Horizon') 64bit
Writing library                : libebml v1.3.1 + libmatroska v1.4.2 / Lavf56.22.100

Video
ID                             : 1
Format                         : AVC
Format/Info                    : Advanced Video Codec
Format profile                 :
Format settings, CABAC         : Yes
Format settings, ReFrames      : 11 frames
Codec ID                       : V_MPEG4/ISO/AVC
Duration                       : 2h 2mn
Bit rate                       : 2 200 Kbps
Width                          : 1 024 pixels
Height                         : 426 pixels
Display aspect ratio           : 2.40:1
Frame rate mode                : Constant
Frame rate                     : 23.976 fps
Standard                       : Component
Color space                    : YUV
Chroma subsampling             : 4:2:0
Bit depth                      : 8 bits
Scan type                      : Progressive
Bits/(Pixel*Frame)             : 0.210
Stream size                    : 1.84 GiB (90%)
Writing library                : x264 core 144 r2525
Encoding settings              : cabac=1 / ref=11 / deblock=1:-3:-3 / analyse=0x3:0x112 / me=umh / subme=9 / psy=1 / psy_rd=1.00:1.00 / mixed_ref=0 / me_range=16 / chroma_me=1 / trellis=1 / 8x8dct=1 / cqm=0 / deadzone=21,11 / fast_pskip=1 / chroma_qp_offset=-4 / threads=6 / lookahead_threads=1 / sliced_threads=0 / nr=0 / decimate=1 / interlaced=0 / bluray_compat=0 / constrained_intra=0 / bframes=12 / b_pyramid=2 / b_adapt=2 / b_bias=6 / direct=3 / weightb=0 / open_gop=0 / weightp=1 / keyint=239 / keyint_min=23 / scenecut=49 / intra_refresh=0 / rc_lookahead=40 / rc=2pass / mbtree=1 / bitrate=2200 / ratetol=1.0 / qcomp=0.80 / qpmin=4 / qpmax=69 / qpstep=12 / cplxblur=20.0 / qblur=0.5 / ip_ratio=1.00 / aq=3:1.00
Default                        : Yes
Forced                         : No
Color range                    : Limited
Statistics Tags Issue          : mkvmerge v8.3.0 ('Over the Horizon') 64bit 2016-01-12 15:07:33 / mkvmerge v8.3.0 ('Over the Horizon') 64bit 2016-01-12 15:07:33 / UTC 2016-01-12 11:36:26
FromStats_BitRate              : 2199816
FromStats_Duration             : 02:02:33.938000000
FromStats_FrameCount           : 176318
FromStats_StreamSize           : 2022163913

Audio
ID                             : 2
Format                         : AC-3
Format/Info                    : Audio Coding 3
Mode extension                 : CM (complete main)
Format settings, Endianness    : Big
Codec ID                       : A_AC3
Duration                       : 2h 2mn
Bit rate mode                  : Constant
Bit rate                       : 192 Kbps
Channel(s)                     : 2 channels
Channel positions              : Front: L R
Sampling rate                  : 48.0 KHz
Frame rate                     : 31.250 fps (1536 spf)
Compression mode               : Lossy
Delay relative to video        : -83ms
Stream size                    : 168 MiB (8%)
Language                       : Russian
Default                        : Yes
Forced                         : No
Statistics Tags Issue          : mkvmerge v8.3.0 ('Over the Horizon') 64bit 2016-01-12 15:07:33 / mkvmerge v8.3.0 ('Over the Horizon') 64bit 2016-01-12 15:07:33 / UTC 2016-01-12 11:36:26
FromStats_BitRate              : 192000
FromStats_Duration             : 02:02:33.952000000
FromStats_FrameCount           : 229811
FromStats_StreamSize           : 176494848

Text
ID                             : 3
Format                         : UTF-8
Codec ID                       : S_TEXT/UTF8
Codec ID/Info                  : UTF-8 Plain Text
Default                        : No
Forced                         : No
Statistics Tags Issue          : mkvmerge v8.3.0 ('Over the Horizon') 64bit 2016-01-12 15:07:33 / mkvmerge v8.3.0 ('Over the Horizon') 64bit 2016-01-12 15:07:33 / UTC 2016-01-12 11:36:26
FromStats_BitRate              : 75
FromStats_Duration             : 01:53:45.710000000
FromStats_FrameCount           : 2036
FromStats_StreamSize           : 64544

Menu
00:00:00.000                   : en:1
00:09:44.000                   : en:2
00:18:27.000                   : en:3
00:28:49.000                   : en:4
00:41:49.000                   : en:5
00:51:58.000                   : en:6
00:59:19.000                   : en:7
01:09:17.000                   : en:8
01:19:53.000                   : en:9
01:28:47.000                   : en:10
01:39:44.000                   : en:11
01:52:18.000                   : en:12
01:55:11.000                   : en:13

Скриншоты:



Время раздачи: 24/7 (до 10 скачавших)
   
Торрент: Зарегистрирован [13 янв 2016, 02:52] Скачать торрент
Скачать торрент
О MediaGet
[ Размер 10.96 КБ / Просмотров 168 ]

Статус:
 
Приватный: Нет (DHT включён)
Размер: 2.05 ГБ (2 200 377 445 байт)
   
Аватара пользователя

Администратор
Администратор
 
Раздал: 2.33 ПБ
Скачал: 1.02 ПБ
Ратио: 2.281
Сообщения: 3723
Зарегистрирован: 07 май 2010, 17:29
Medals: 1
Лучший релиз за месяц (1)
  • Личное сообщение
  • ICQ

  • Похожие торренты
    Ответы
    Просмотры
    Последнее сообщение

Вернуться в Зарубежные фильмы (Rip's)

Кто сейчас на конференции

Зарегистрированные пользователи: bigcatwar, ванюшка

Ресурс не предоставляет электронные версии произведений, а занимается лишь коллекционированием и каталогизацией ссылок, присылаемых и публикуемых на форуме нашими читателями. Если вы являетесь правообладателем какого-либо представленного материала и не желаете чтобы ссылка на него находилась в нашем каталоге, свяжитесь с нами и мы незамедлительно удалим её. Файлы для обмена на трекере предоставлены пользователями сайта, и администрация не несёт ответственности за их содержание. Просьба не заливать файлы, защищенные авторскими правами, а также файлы нелегального содержания!
cron