Кудряшка Сью / Curly Sue (Джон Хьюз / John Hughes) [1991, США, семейный, комедия, мелодрама, WEB-DLRip] Dub (Варус Видео) скачать торрент

Мировая классика кино, Rip, Рипы, Зарубежные фильмы

Модератор: Модераторы видео

  • Статистика раздачи
Размер: 1.44 ГБ   |  Зарегистрирован: 22 дек 2015, 22:34   |   .torrent скачан: 10 раз
Сидеров: 90  [ 0 байт/сек ]     Личеров: 0  [ 0 байт/сек ]  
Список файлов : Кто скачал : Раздают : Скачивают : Кто благодарил : История : Не раздающие : Запрашивали сидеров : Внешние трекеры 
  

Кудряшка Сью / Curly Sue (Джон Хьюз / John Hughes) [1991, США, семейный, комедия, мелодрама, WEB-DLRip] Dub (Варус Видео)

Сообщение Фаромир брат » 22 дек 2015, 22:34

Кудряшка Сью / Curly Sue


Год выпуска: 1991
Страна: США
Жанр: семейный, Комедия, мелодрама

Продолжительность: 01:42:04
Перевод: Профессиональный (дублированный) - Варус Видео
Cубтитры: нет

Режиссер: Джон Хьюз / John Hughes

В ролях: Элисан Портер (Curly Sue), Джеймс Белуши (Bill Dancer), Келли Линч (Grey Ellison), Джон Гец (Walker McCormick), Фред Долтон Томпсон (Bernard Oxbar), Кэмерон Тор (Maitre d'), Брэнском Ричмонд (Albert), Стив Карелл (Tesio), Гэйл Боггс (Anise Hall), Бёрк Бирнс (Dr. Maxwell)
Мировая премьера: 25 октября 1991
Описание: Бродягу-афериста Билла Дансера и находящуюся на его попечении сообразительную кудрявую малышку-сироту судьба забросила в самое сердце Чикаго. На этот раз Биллу улыбнулась удача: его безобидное мошенничество приводит их из ночлежки для бездомных в роскошный особняк. Они инсценируют попадание Билла под колеса машины, за рулем которой была богатая молодая женщина. Испугавшись за жизнь Билла, она приглашает его и Сью пожить временно у нее дома…

Роли дублировали Андрей Гриневич, Ирина Акулова, Светлана Харлап, Андрей Ташков, Виктор Петров, Виктор Рождественский, Лариса Данилина и Елена Астафьева.

Рейтинг

MPAA: PG - Рекомендуется присутствие родителей.
Качество видео: WEB-DLRip
Формат видео: AVI -> /SAMPLE/
Видео: XviD, 720x400 (16:9), 23.976 fps, 1821 kbps avg
Аудио:
1 - 48 khz, AC3 Dolby Digital, 2/0 (L,R) ch, ~192 kbps [Варус Видео] VHSRip
Обновление релиза от 28.06.2015. Причины:
Заменены видеоряд с HDTVRip на WEB-DLRip и дубляж от Варус Видео (старый звук на новый, более лучший по качеству).
Просьба перескачать торрент!
General
Complete name : D:\Релизы на Трекере\Кудряшка Сью (Варус Видео).avi
Format : AVI
Format/Info : Audio Video Interleave
File size : 1.44 GiB
Duration : 1h 42mn
Overall bit rate : 2 022 Kbps
Writing application : VirtualDubMod 1.5.10.3 | http://www.virtualdub-fr.org || (build 2550/release)
Writing library : VirtualDubMod build 2550/release

Video
ID : 0
Format : MPEG-4 Visual
Format profile : Advanced [email protected]
Format settings, BVOP : 1
Format settings, QPel : No
Format settings, GMC : No warppoints
Format settings, Matrix : Custom
Codec ID : XVID
Codec ID/Hint : XviD
Duration : 1h 42mn
Bit rate : 1 821 Kbps
Width : 720 pixels
Height : 400 pixels
Display aspect ratio : 16:9
Frame rate : 23.976 fps
Color space : YUV
Chroma subsampling : 4:2:0
Bit depth : 8 bits
Scan type : Progressive
Compression mode : Lossy
Bits/(Pixel*Frame) : 0.264
Stream size : 1.30 GiB (90%)
Writing library : XviD 1.2.1 (UTC 2008-12-04)

Audio
ID : 1
Format : AC-3
Format/Info : Audio Coding 3
Mode extension : CM (complete main)
Format settings, Endianness : Big
Codec ID : 2000
Duration : 1h 42mn
Bit rate mode : Constant
Bit rate : 192 Kbps
Channel(s) : 2 channels
Channel positions : Front: L R
Sampling rate : 48.0 KHz
Compression mode : Lossy
Stream size : 140 MiB (9%)
Alignment : Split accross interleaves
Interleave, duration : 42 ms (1.00 video frame)
Interleave, preload duratio : 500 ms
   
Торрент: Зарегистрирован [22 дек 2015, 22:34] Скачать торрент
Скачать торрент
О MediaGet
[ Размер 15.01 КБ / Просмотров 147 ]

Статус:
 
Приватный: Нет (DHT включён)
Размер: 1.44 ГБ (1 548 175 360 байт)
   
Аватара пользователя

Сид-сен-сей
Сид-сен-сей
 
Раздал: 24.31 ТБ
Скачал: 1.72 ТБ
Ратио: 20.885
Сообщения: 7897
Фото: 125
Зарегистрирован: 26 ноя 2012, 17:20
Medals: 2
1000 раздач! (1) Меценат №2 (1)

  • Похожие торренты
    Ответы
    Просмотры
    Последнее сообщение

Вернуться в Зарубежные фильмы (Rip's)

Кто сейчас на конференции

Зарегистрированные пользователи: bigcatwar, ванюшка

Ресурс не предоставляет электронные версии произведений, а занимается лишь коллекционированием и каталогизацией ссылок, присылаемых и публикуемых на форуме нашими читателями. Если вы являетесь правообладателем какого-либо представленного материала и не желаете чтобы ссылка на него находилась в нашем каталоге, свяжитесь с нами и мы незамедлительно удалим её. Файлы для обмена на трекере предоставлены пользователями сайта, и администрация не несёт ответственности за их содержание. Просьба не заливать файлы, защищенные авторскими правами, а также файлы нелегального содержания!
cron