Потерянное Рождество / Lost Christmas (Джон Хэй / John Hay) [2011, Великобритания, драма, HDTVRip] MVO (BaibaKo) + Sub Eng + Original Eng скачать торрент

Мировая классика кино, Rip, Рипы, Зарубежные фильмы

Модератор: Модераторы видео

  • Статистика раздачи
Размер: 1.57 ГБ   |  Зарегистрирован: 22 дек 2015, 22:29   |   .torrent скачан: 11 раз
Сидеров: 136  [ 0 байт/сек ]     Личеров: 0  [ 0 байт/сек ]  
Список файлов : Кто скачал : Раздают : Скачивают : Кто благодарил : История : Не раздающие : Запрашивали сидеров : Внешние трекеры 
  

Потерянное Рождество / Lost Christmas (Джон Хэй / John Hay) [2011, Великобритания, драма, HDTVRip] MVO (BaibaKo) + Sub Eng + Original Eng

Сообщение Фаромир брат » 22 дек 2015, 22:29

Потерянное Рождество / Lost Christmas

Страна: Великобритания
Жанр: драма
Год выпуска: 2011
Продолжительность: 01:28:25

Перевод: Любительский (многоголосый закадровый) BaibaKo
Cубтитры: английские
Оригинальная аудиодорожка: английский

Режиссер: Джон Хэй / John Hay

В ролях:
Эдди Иззард
Джейсон Флеминг
Джеффри Палмер
Сорча Кьюсак
Стивен Макинтош
Кристин Боттомли
Ларри Миллс
Конни Хайд
Бретт Фэнси
Эдлин Росс

Описание:
В канун Рождества в Манчестере появляется странный загадочный человек. Он не помнит ни как его зовут, ни где находится, ни что там делает. На куртке, в которую одет, он прочитал только имя Энтони. И вскоре обнаруживает в себе уникальную способность. Прикоснувшись рукой, он безошибочно определяет, что потеряли люди, и помогает им найти. Кто он и почему оказался в Манчестере на Рождество спустя год после того, как у маленького Гуса в автокатастрофе погибли родители? И все ли потери он в состоянии вернуть?

Доп. информация:
Перевод: Lub_a
Озвучка: Лира Грим, Елена Григорьева, Руслан Иванов и Олекса Мельник.




Качество видео: HDTVRip
Формат видео: AVI

Видео: 704x400 (1.76:1), 25 fps, XviD build 65 ~2150 kbps avg, 0.30 bit/pixel
Аудио 1: 48 kHz, AC3 Dolby Digital, 2/0 (L,R) ch, ~192 kbps - MVO
Аудио 2: 48 kHz, AC3 Dolby Digital, 2/0 (L,R) ch, ~192 kbps - Original - отдельно
Формат субтитров: softsub (SRT)

Семпл
Сравнение с HDTVRip-ом от LegendKiev - здесь и здесь - 10 кадров подряд.
Общее
Полное имя : D:\Torrent\Потерянное Рождество\Потерянное Рождество_1.45\Потерянное Рождество_1.45\Потерянное Рождество_1.45.avi
Формат : AVI
Формат/Информация : Audio Video Interleave
Размер файла : 1,45 Гбайт
Продолжительность : 1 ч. 28 м.
Общий поток : 2353 Кбит/сек
Программа кодирования : VirtualDubMod 1.5.10.3 | http://www.virtualdub-fr.org || (build 2550/release)
Библиотека кодирования : VirtualDubMod build 2550/release

Видео
Идентификатор : 0
Формат : MPEG-4 Visual
Профиль формата : Advanced [email protected]
Параметр BVOP формата : 1
Параметр QPel формата : Нет
Параметр GMC формата : Без точки перехода
Параметр матрицы формата : Выборочная
Идентификатор кодека : XVID
Идентификатор кодека/Подсказка : XviD
Продолжительность : 1 ч. 28 м.
Битрейт : 2151 Кбит/сек
Ширина : 704 пикселя
Высота : 400 пикселей
Соотношение сторон : 16:9
Частота кадров : 25,000 кадров/сек
Цветовое пространство : YUV
Субдискретизация насыщенности : 4:2:0
Битовая глубина : 8 бит
Тип развёртки : Прогрессивная
Метод сжатия : С потерями
Бит/(Пиксели*Кадры) : 0.306
Размер потока : 1,33 Гбайт (91%)
Библиотека кодирования : XviD 65

Аудио
Идентификатор : 1
Формат : AC-3
Формат/Информация : Audio Coding 3
Расширение режима : CM (complete main)
Параметр Endianness формата : Big
Идентификатор кодека : 2000
Продолжительность : 1 ч. 28 м.
Вид битрейта : Постоянный
Битрейт : 192 Кбит/сек
Каналы : 2 канала
Расположение каналов : Front: L R
Частота : 48,0 КГц
Битовая глубина : 16 бит
Метод сжатия : С потерями
Размер потока : 121 Мбайт (8%)
Выравнивание : Разделение по промежуткам
Продолжительность промежутка : 40 мс. (1,00 видеокадр)
Время предзагрузки промежутка : 500 мс.

Общее
Полное имя : D:\Torrent\Потерянное Рождество\Потерянное Рождество_1.45\Потерянное Рождество_1.45\Потерянное Рождество_1.45_eng.ac3
Формат : AC-3
Формат/Информация : Audio Coding 3
Размер файла : 121 Мбайт
Продолжительность : 1 ч. 28 м.
Режим общего битрейта : Постоянный
Общий поток : 192 Кбит/сек

Аудио
Формат : AC-3
Формат/Информация : Audio Coding 3
Расширение режима : CM (complete main)
Параметр Endianness формата : Big
Продолжительность : 1 ч. 28 м.
Вид битрейта : Постоянный
Битрейт : 192 Кбит/сек
Каналы : 2 канала
Расположение каналов : Front: L R
Частота : 48,0 КГц
Битовая глубина : 16 бит
Метод сжатия : С потерями
Размер потока : 121 Мбайт (100%)

Общее
Полное имя : D:\Torrent\Потерянное Рождество\Потерянное Рождество_1.45\Потерянное Рождество_1.45\Потерянное Рождество_1.45_Eng.srt
Формат : SubRip
Размер файла : 69,9 Кбайт

Текст
Формат : SubRip
Метод сжатия : Без потерь
   
Торрент: Зарегистрирован [22 дек 2015, 22:29] Скачать торрент
Скачать торрент
О MediaGet
[ Размер 16.42 КБ / Просмотров 139 ]

Статус:
 
Приватный: Нет (DHT включён)
Размер: 1.57 ГБ (1 687 542 419 байт)
   
Аватара пользователя

Сид-сен-сей
Сид-сен-сей
 
Раздал: 24.31 ТБ
Скачал: 1.72 ТБ
Ратио: 20.885
Сообщения: 7897
Фото: 125
Зарегистрирован: 26 ноя 2012, 17:20
Medals: 2
1000 раздач! (1) Меценат №2 (1)

  • Похожие торренты
    Ответы
    Просмотры
    Последнее сообщение

Вернуться в Зарубежные фильмы (Rip's)

Кто сейчас на конференции

Зарегистрированные пользователи: bigcatwar

Ресурс не предоставляет электронные версии произведений, а занимается лишь коллекционированием и каталогизацией ссылок, присылаемых и публикуемых на форуме нашими читателями. Если вы являетесь правообладателем какого-либо представленного материала и не желаете чтобы ссылка на него находилась в нашем каталоге, свяжитесь с нами и мы незамедлительно удалим её. Файлы для обмена на трекере предоставлены пользователями сайта, и администрация не несёт ответственности за их содержание. Просьба не заливать файлы, защищенные авторскими правами, а также файлы нелегального содержания!
cron