Пока ты спал / While You Were Sleeping (Джон Тёртелтауб / Jon Turteltaub) [1995, США, романтическая комедия, BDRip] MVO (Первый канал) + DVO (НТВ+) + Dub (Нева-1) скачать торрент

Мировая классика кино, Rip, Рипы, Зарубежные фильмы

Модератор: Модераторы видео

  • Статистика раздачи
Размер: 2.07 ГБ   |  Зарегистрирован: 22 дек 2015, 22:26   |   .torrent скачан: 11 раз
Сидеров: 2  [ 0 байт/сек ]     Личеров: 0  [ 0 байт/сек ]  
Список файлов : Кто скачал : Раздают : Скачивают : Кто благодарил : История : Не раздающие : Запрашивали сидеров : Внешние трекеры 
  

Пока ты спал / While You Were Sleeping (Джон Тёртелтауб / Jon Turteltaub) [1995, США, романтическая комедия, BDRip] MVO (Первый канал) + DVO (НТВ+) + Dub (Нева-1)

Сообщение Фаромир брат » 22 дек 2015, 22:26

Пока ты спал
While You Were Sleeping


Страна: США
Жанр: романтическая Комедия
Год выпуска: 1995
Продолжительность: 01:43:15
Перевод 1: Профессиональный (многоголосый закадровый) Первый канал
Перевод 2: Профессиональный (двухголосый закадровый) НТВ+
Текст читали: Наталья Казначеева и Александр Гаврилин
Перевод 3: Профессиональный (дублированный) Нева-1
Cубтитры: нет
Оригинальная аудиодорожка: нет
Режиссер: Джон Тёртелтауб / Jon Turteltaub

В ролях: Сандра Буллок, Билл Пуллман, Питер Галлахер, Питер Бойл, Джек Уорден, Глинис Джонс, Миколе Миркурио, Джейсон Бернард, Майкл Рисполи, Элли Уокер.
Описание: Застенчивость мешает одинокой Люси познакомиться с мужчиной своей мечты, которого она видит каждое утро. Зато помогает случай, и девушка спасает незнакомцу жизнь. Теперь она может любоваться им целыми днями: спасенный Питер лежит в больнице без сознания. Семья по ошибке принимает ее за невесту, и Люси не хочет разубеждать этих милых людей. Ведь она уже успела привязаться к ним, особенно к брату Питера. И пока ничего не подозревающий «жених» спит, его «невеста» уже не верит в прекрасный сон. Скоро Люси придется выбирать между волшебной сказкой и такой реальной любовью…
Доп. информация:
О переводах:
Перевод НТВ+ на трекере появляется впервые
Синхрон дубляжа под BD появляется впервые
За исходник НТВ+ спасибо alenavova
Дубляж Нева-1 взят из раздачи HDTVRip с Кинозал.тв (качество VHS) Спасибо Lem
Перевод Первого канала записан мною с цифрового эфира (Первый канал)
Синхронизация: mister55555
Сэмпл: минута50сек
Качество видео: BDRip (исходник спасибо kingsize87)
Формат видео: AVI

Видео: XVID, 704x384, 1,85:1, 23,976 кадра/сек, 2263 Кбит/сек
Аудио 1: AC-3, 48,0 КГц, 192 Кбит/сек, 2 канала (многоголосый Первый канал)
Аудио 2: AC-3, 48,0 КГц, 192 Кбит/сек, 2 канала (двухголосый НТВ+)
Аудио 3: AC-3, 48,0 КГц, 192 Кбит/сек, 2 канала (дубляж Нева-1)
Общее
Полное имя : Пока ты спал.1995.BDRip.1канал;НТВ+;Нева1.avi
Формат : AVI
Формат/Информация : Audio Video Interleave
Профиль формата : OpenDML
Размер файла : 2,07 Гбайт
Продолжительность : 1 ч. 43 м.
Общий поток : 2864 Кбит/сек
Дата записи : 08.11.2014
Программа кодирования : VirtualDubModRus 1.5.10.2 (build 2542/release)
Библиотека кодирования : VirtualDubMod build 2542/release
Правообладатель : mister55555
Примечание : Для rutracker.org

Видео
Идентификатор : 0
Формат : MPEG-4 Visual
Профиль формата : Advanced [email protected]
Параметр BVOP формата : 1
Параметр QPel формата : Нет
Параметр GMC формата : Без точки перехода
Параметр матрицы формата : Выборочная
Идентификатор кодека : XVID
Идентификатор кодека/Подсказка : XviD
Продолжительность : 1 ч. 43 м.
Битрейт : 2263 Кбит/сек
Ширина : 704 пикселя
Высота : 384 пикселя
Соотношение сторон : 1,85:1
Частота кадров : 23,976 кадра/сек
Цветовое пространство : YUV
Субдискретизация насыщенности : 4:2:0
Битовая глубина : 8 бит
Тип развёртки : Прогрессивная
Метод сжатия : С потерями
Бит/(Пиксели*Кадры) : 0.349
Размер потока : 1,63 Гбайт (79%)
Заголовок : Пока ты спал.1995.BDRip.1канал/НТВ+/Нева1
Библиотека кодирования : XviD 73

Аудио #1
Идентификатор : 1
Формат : AC-3
Формат/Информация : Audio Coding 3
Расширение режима : CM (complete main)
Параметр Endianness формата : Big
Идентификатор кодека : 2000
Продолжительность : 1 ч. 43 м.
Вид битрейта : Постоянный
Битрейт : 192 Кбит/сек
Каналы : 2 канала
Расположение каналов : Front: L R
Частота : 48,0 КГц
Битовая глубина : 16 бит
Метод сжатия : С потерями
Задержка видео : 500 мс.
Размер потока : 142 Мбайт (7%)
Выравнивание : Разделение по промежуткам
Продолжительность промежутка : 42 мс. (1,00 видеокадр)
Время предзагрузки промежутка : 500 мс.
Заголовок : многоголосый Первый канал

Аудио #2
Идентификатор : 2
Формат : AC-3
Формат/Информация : Audio Coding 3
Расширение режима : CM (complete main)
Параметр Endianness формата : Big
Идентификатор кодека : 2000
Продолжительность : 1 ч. 43 м.
Вид битрейта : Постоянный
Битрейт : 192 Кбит/сек
Каналы : 2 канала
Расположение каналов : Front: L R
Частота : 48,0 КГц
Битовая глубина : 16 бит
Метод сжатия : С потерями
Задержка видео : 500 мс.
Размер потока : 142 Мбайт (7%)
Выравнивание : Разделение по промежуткам
Продолжительность промежутка : 42 мс. (1,00 видеокадр)
Время предзагрузки промежутка : 500 мс.
Заголовок : двухголосый НТВ+

Аудио #3
Идентификатор : 3
Формат : AC-3
Формат/Информация : Audio Coding 3
Расширение режима : CM (complete main)
Параметр Endianness формата : Big
Идентификатор кодека : 2000
Продолжительность : 1 ч. 43 м.
Вид битрейта : Постоянный
Битрейт : 192 Кбит/сек
Каналы : 2 канала
Расположение каналов : Front: L R
Частота : 48,0 КГц
Битовая глубина : 16 бит
Метод сжатия : С потерями
Задержка видео : 500 мс.
Размер потока : 142 Мбайт (7%)
Выравнивание : Разделение по промежуткам
Продолжительность промежутка : 42 мс. (1,00 видеокадр)
Время предзагрузки промежутка : 500 мс.
Заголовок : дубляж Нева-1
   
Торрент: Зарегистрирован [22 дек 2015, 22:26] Скачать торрент
Скачать торрент
О MediaGet
[ Размер 10.93 КБ / Просмотров 128 ]

Статус:
 
Приватный: Нет (DHT включён)
Размер: 2.07 ГБ (2 217 672 704 байт)
   
Аватара пользователя

Сид-сен-сей
Сид-сен-сей
 
Раздал: 24.31 ТБ
Скачал: 1.72 ТБ
Ратио: 20.885
Сообщения: 7897
Фото: 125
Зарегистрирован: 26 ноя 2012, 17:20
Medals: 2
1000 раздач! (1) Меценат №2 (1)

Вернуться в Зарубежные фильмы (Rip's)

Кто сейчас на конференции

Зарегистрированные пользователи: bigcatwar, ванюшка

Ресурс не предоставляет электронные версии произведений, а занимается лишь коллекционированием и каталогизацией ссылок, присылаемых и публикуемых на форуме нашими читателями. Если вы являетесь правообладателем какого-либо представленного материала и не желаете чтобы ссылка на него находилась в нашем каталоге, свяжитесь с нами и мы незамедлительно удалим её. Файлы для обмена на трекере предоставлены пользователями сайта, и администрация не несёт ответственности за их содержание. Просьба не заливать файлы, защищенные авторскими правами, а также файлы нелегального содержания!
cron