Лагаан: Однажды в Индии / Lagaan: Once Upon a Time in India (2001) DVDRip | P скачать торрент

Мировая классика кино, Rip, Рипы, Зарубежные фильмы

Модератор: Модераторы видео

  • Статистика раздачи
Размер: 1.37 ГБ   |  Зарегистрирован: 02 авг 2015, 19:25   |   .torrent скачан: 24 раз
Сидеров: 10  [ 0 байт/сек ]     Личеров: 0  [ 0 байт/сек ]  
Список файлов : Кто скачал : Раздают : Скачивают : Кто благодарил : История : Не раздающие : Запрашивали сидеров : Внешние трекеры 
  

Лагаан: Однажды в Индии / Lagaan: Once Upon a Time in India (2001) DVDRip | P

Сообщение Фаромир брат » 02 авг 2015, 19:25

Лагаан: Однажды в Индии

Lagaan: Once Upon a Time in India

«Once upon a time in India»




Год выпуска: 2001
Страна: Индия
Жанр: мюзикл, драма, мелодрама, приключения, спорт
Продолжительность: 03:27:33
Перевод: Профессиональный (многоголосый закадровый)

Режиссер: Ашутош Говарикер
Сценарий: Ашутош Говарикер, Кумар Дэйв, Санджай Дайма, ...
Продюсер: Аамир Кхан, Рина Дутта
Оператор: Анил Мехта
Композитор: А.Р. Рахман
Художник: Нитин Десаи, Бхану Атайя
Монтаж: Баллу Салуджа

В ролях: Аамир Кхан / Aamir Khan (Bhuvan), Грейси Сингх / Gracy Singh (Gauri), Рэйчел Шелли / Rachel Shelley (Elizabeth Russell), Пол Блекторн / Paul Blackthorne (Captain Andrew Russell), Сухасини Малай / Suhasini Mulay (Yashodamai), Кулбхушан Харбанда / Kulbhushan Kharbanda (Rajah Puran Singh), Рагувир Ядав / Raghuvir Yadav (в титрах: Raghuveer Yadav) (Bhura), Раджендра Гупта / Rajendra Gupta (Mukhiya)


Описание: 1893 год. Индия изнемогает под гнетом британских колонизаторов. Жители маленькой бедной деревушки Чэмпэн, страдающей от засухи уже много месяцев, подают прошение полковнику Расселу, управлявшему сбором налогов, отсрочить день уплаты. В ответ высокомерный британец, решив поиздеваться над несчастными, предлагает им пари: просьба будет удовлетворена, если местные жители смогут переиграть его в крикет. Гордый Бхаван принимает вызов, хотя не имеет ни малейшего представления об этой игре. Но сестра полковника, красавица Элизабет, возмущенная жестокостью брата, решает помочь Бхавану овладеть правилами…


Бюджет: $6 000 000
Сборы в США: $70 147
Зрители: Нидерланды 6.3 тыс.

Премьера (мир): 15 июня 2001, ...
Рейтинг MPAA: Рекомендуется присутствие родителей


Формат: AVI
Видео кодек: DivX 5
Качество: DVDRip
Аудио кодеk: MP3
Видео: 640x368 (16:9), 25.000 fps, DivX 5, 802 Kbps
Аудио: Аудио #1: MP3, 128 Kbps, 48.0 KHz, 2 ch





General
Complete name : Lagaan.Odnazhdy.v.Indii.avi
Format : AVI
Format/Info : Audio Video Interleave
File size : 1.37 GiB
Duration : 3h 27mn
Overall bit rate : 943 Kbps
Writing application : Nandub v1.0rc2
Writing library : Nandub build 1852/release

Video
ID : 0
Format : MPEG-4 Visual
Format settings, BVOP : Yes
Format settings, QPel : No
Format settings, GMC : No warppoints
Format settings, Matrix : Default (H.263)
Codec ID : DX50
Codec ID/Hint : DivX 5
Duration : 3h 27mn
Bit rate : 802 Kbps
Width : 640 pixels
Height : 368 pixels
Display aspect ratio : 16:9
Frame rate : 25.000 fps
Color space : YUV
Chroma subsampling : 4:2:0
Bit depth : 8 bits
Scan type : Progressive
Bits/(Pixel*Frame) : 0.136
Stream size : 1.16 GiB (85%)
Writing library : DivX 5.0.3 (UTC 2003-01-24)

Audio
ID : 1
Format : MPEG Audio
Format version : Version 1
Format profile : Layer 3
Mode : Joint stereo
Mode extension : MS Stereo
Codec ID : 55
Codec ID/Hint : MP3
Duration : 3h 27mn
Bit rate mode : Constant
Bit rate : 128 Kbps
Channel(s) : 2 channels
Sampling rate : 48.0 KHz
Stream size : 190 MiB (14%)
Alignment : Aligned on interleaves
Interleave, duration : 24 ms (0.60 video frame)
Interleave, preload duration : 480 ms


· Роль Бхавана предназначалась Шах Рукх Кхану. Но после его отказа, эту роль исполнил Аамир Кхан.









   
Торрент: Зарегистрирован [02 авг 2015, 19:25] Скачать торрент
Скачать торрент
О MediaGet
[ Размер 14.54 КБ / Просмотров 110 ]

Статус:
 
Приватный: Нет (DHT включён)
Размер: 1.37 ГБ (1 468 342 272 байт)
   
Аватара пользователя

Сид-сен-сей
Сид-сен-сей
 
Раздал: 24.31 ТБ
Скачал: 1.72 ТБ
Ратио: 20.885
Сообщения: 7897
Фото: 125
Зарегистрирован: 26 ноя 2012, 17:20
Medals: 2
1000 раздач! (1) Меценат №2 (1)

Вернуться в Зарубежные фильмы (Rip's)

Кто сейчас на конференции

Зарегистрированные пользователи: нет зарегистрированных пользователей

Ресурс не предоставляет электронные версии произведений, а занимается лишь коллекционированием и каталогизацией ссылок, присылаемых и публикуемых на форуме нашими читателями. Если вы являетесь правообладателем какого-либо представленного материала и не желаете чтобы ссылка на него находилась в нашем каталоге, свяжитесь с нами и мы незамедлительно удалим её. Файлы для обмена на трекере предоставлены пользователями сайта, и администрация не несёт ответственности за их содержание. Просьба не заливать файлы, защищенные авторскими правами, а также файлы нелегального содержания!
cron