Китаец / Der Chinese / The Man from Beijing (2011) DVDRip-AVC скачать торрент

Мировая классика кино, Rip, Рипы, Зарубежные фильмы

Модератор: Модераторы видео

  • Статистика раздачи
Размер: 1.46 ГБ   |  Зарегистрирован: 18 июл 2015, 00:23   |   .torrent скачан: 15 раз
Сидеров: 292  [ 0 байт/сек ]     Личеров: 54  [ 0 байт/сек ]  
Список файлов : Кто скачал : Раздают : Скачивают : Кто благодарил : История : Не раздающие : Запрашивали сидеров : Внешние трекеры 
  

Китаец / Der Chinese / The Man from Beijing (2011) DVDRip-AVC

Сообщение pitius76m » 18 июл 2015, 00:23

Информация о фильме
Название: Китаец
Оригинальное название: Der Chinese / The Man from Beijing
Год выхода: 2011
Жанр: Триллер, криминал
Режиссер: Петер Кеглевич

В ролях: Сюзанна фон Борсоди, Микаэл Нюквист, Клаудия Михельсен, Эми Чэн, Джэймс Таэнака, Йоахим Биссмайер, Рёланд Визнеккер, Аугуст Шмёльцер, Карлхайнц Хакль

О фильме: У Виви Сандберг и ее коллег-полицейских перехватило дыхание, когда они увидели эту страшную картину: в маленькой шведской деревушке Хесьяваллен найдены зверски убитыми почти все ее жители — 19 человек. Бригитта Рослин, судья из Стокгольма тоже вскоре узнает это страшное известие — среди убитых ее родители. Она начинает собственное расследование, и след приводит ее в далекое прошлое…



Страна: Германия, Швеция, Австрия
Студия: Yellow Bird Pictures, Lotus Film, Yellow Bird Films
Продолжительность: 03:04:54
Перевод: Любительский (многоголосый закадровый) [Trivor]

Файл
Кодек: AVC
Качество: DVDRip-AVC
Видео: 720x400, 935 kbps, 23,976 fps, 0,135 Bits/(Pixel*Frame)
Звук: AC3, 48 kHz, 2 ch, 192 kbps
Субтитры: Нет

General
Unique ID : 182433836604132099829665485960072508591 (0x893F7A97C89CF3D9BA215BBBF7D5B4AF)
Complete name : D:Der Chinese.DVDRip-AVC_by_Bathory.mkv
Format : Matroska
Format version : Version 2
File size : 1.46 GiB
Duration : 3h 4mn
Overall bit rate : 1 129 Kbps
Encoded date : UTC 2014-07-30 03:10:03
Writing application : mkvmerge v6.1.0 ('Old Devil') built on Mar 4 2013 09:10:42
Writing library : libebml v1.3.0 + libmatroska v1.4.0

Video
ID : 1
Format : AVC
Format/Info : Advanced Video Codec
Format profile : [email protected]
Format settings, CABAC : Yes
Format settings, ReFrames : 12 frames
Codec ID : V_MPEG4/ISO/AVC
Duration : 3h 4mn
Bit rate : 935 Kbps
Width : 720 pixels
Height : 400 pixels
Display aspect ratio : 16:9
Frame rate : 23.976 fps
Color space : YUV
Chroma subsampling : 4:2:0
Bit depth : 8 bits
Scan type : Progressive
Bits/(Pixel*Frame) : 0.135
Stream size : 1.18 GiB (81%)
Writing library : x264 core 130 r2273 b3065e6
Encoding settings : cabac=1 / ref=12 / deblock=1:-2:-2 / analyse=0x3:0x113 / me=umh / subme=11 / psy=1 / psy_rd=1.00:0.10 / mixed_ref=1 / me_range=32 / chroma_me=1 / trellis=2 / 8x8dct=1 / cqm=0 / deadzone=21,11 / fast_pskip=0 / chroma_qp_offset=-3 / threads=12 / lookahead_threads=3 / sliced_threads=0 / nr=0 / decimate=1 / interlaced=0 / bluray_compat=0 / constrained_intra=0 / bframes=16 / b_pyramid=2 / b_adapt=2 / b_bias=0 / direct=3 / weightb=1 / open_gop=0 / weightp=2 / keyint=250 / keyint_min=23 / scenecut=40 / intra_refresh=0 / rc_lookahead=60 / rc=2pass / mbtree=1 / bitrate=935 / ratetol=1.0 / qcomp=0.60 / qpmin=0 / qpmax=69 / qpstep=4 / cplxblur=20.0 / qblur=0.5 / ip_ratio=1.40 / aq=1:1.00
Default : Yes
Forced : No

Audio
ID : 2
Format : AC-3
Format/Info : Audio Coding 3
Mode extension : CM (complete main)
Format settings, Endianness : Big
Codec ID : A_AC3
Duration : 3h 4mn
Bit rate mode : Constant
Bit rate : 192 Kbps
Channel(s) : 2 channels
Channel positions : Front: L R
Sampling rate : 48.0 KHz
Bit depth : 16 bits
Compression mode : Lossy
Stream size : 254 MiB (17%)
Default : Yes
Forced : No

   
Торрент: Зарегистрирован [18 июл 2015, 00:23] Скачать торрент
Скачать торрент
О MediaGet
[ Размер 15.31 КБ / Просмотров 147 ]

Статус:
 
Приватный: Нет (DHT включён)
Размер: 1.46 ГБ (1 565 500 535 байт)
   
Аватара пользователя
Модератор видео
Модератор видео
 
Раздал: 9.46 ТБ
Скачал: 1 ТБ
Ратио: 9.520
Сообщения: 466
Зарегистрирован: 24 янв 2011, 10:36
Откуда: Продажа компьютерных игр STWAM
  • Личное сообщение
  • Сайт

  • Похожие торренты
    Ответы
    Просмотры
    Последнее сообщение

Вернуться в Зарубежные фильмы (Rip's)

Кто сейчас на конференции

Зарегистрированные пользователи: nemirofff

Ресурс не предоставляет электронные версии произведений, а занимается лишь коллекционированием и каталогизацией ссылок, присылаемых и публикуемых на форуме нашими читателями. Если вы являетесь правообладателем какого-либо представленного материала и не желаете чтобы ссылка на него находилась в нашем каталоге, свяжитесь с нами и мы незамедлительно удалим её. Файлы для обмена на трекере предоставлены пользователями сайта, и администрация не несёт ответственности за их содержание. Просьба не заливать файлы, защищенные авторскими правами, а также файлы нелегального содержания!
cron