Дом, милый дом / Hem ljuva hem [2001, Швеция, Психологическая драма, DVDRip] скачать торрент

Мировая классика кино, Rip, Рипы, Зарубежные фильмы

Модератор: Модераторы видео

  • Статистика раздачи
Размер: 785.54 МБ   |  Зарегистрирован: 09 июл 2015, 21:18   |   .torrent скачан: 0 раз
Сидеров: 0  [ 0 байт/сек ]     Личеров: 0  [ 0 байт/сек ]  
Список файлов : Кто скачал : Раздают : Скачивают : Кто благодарил : История : Не раздающие : Запрашивали сидеров : Внешние трекеры 
  

Дом, милый дом / Hem ljuva hem [2001, Швеция, Психологическая драма, DVDRip]

Сообщение pitius76m » 09 июл 2015, 21:18

Страна: Швеция
Жанр: Психологическая драма
Год выпуска: 2001
Продолжительность: 01:35:47
Перевод: Одноголосый закадровый
Cубтитры: русские
Оригинальная аудиодорожка: шведский
Режиссер: Дан Инь / Dan Ying

В ролях: Михаэль Нюквист / Michael Nyqvist, Кристина Тёрнквист / Kristina Törnqvist, Анастасиос Соулис / Anastasios Soulis, Александра Рапапорт / Alexandra Rapaport, Матс Блумгрен / Mats Blomgren, Ларс Вэрингер / Lars Väringer, Анна Бьелькерюд / Anna Bjelkerud и др.

Описание: Мать и сын становятся жертвами домашнего насилия со стороны главы семьи. Понимая, что мать неспособна справиться с мужем-садистом, мальчик решает самостоятельно решить эту проблему. Однако избавиться от отца оказывается не так-то просто.

Качество видео: DVDRip
Формат видео: AVI
Видео: 592x320 (1.85:1), 25 fps, XviD MPEG-4 ~875 kbps avg, 0.18 bit/pixel
Аудио 1: 48 kHz, MPEG Layer 3, 2 ch, ~128.00 kbps avg(Русский)
Аудио 2: 48 kHz, MPEG Layer 3, 2 ch, ~128.00 kbps avg(Шведский)
Формат субтитров: softsub (SRT)

Общее
Полное имя : F:\С моей озвучкой\Дом, милый дом\Hem ljuva hem.avi
Формат : AVI
Формат/Информация : Audio Video Interleave
Размер файла : 785 Мбайт
Продолжительность : 1 ч. 35 м.
Общий поток : 1146 Кбит/сек
Программа кодирования : VirtualDubModRus 1.5.10.2 (build 2542/release)
Библиотека кодирования : VirtualDubMod build 2542/release

Видео
Идентификатор : 0
Формат : MPEG-4 Visual
Профиль формата : Advanced [email protected]
Параметр BVOP формата : 1
Параметр QPel формата : Нет
Параметр GMC формата : Без точки перехода
Параметр матрицы формата : Default (H.263)
Режим смешивания : Сжатый битовый поток
Идентификатор кодека : XVID
Идентификатор кодека/Подсказка : XviD
Продолжительность : 1 ч. 35 м.
Битрейт : 876 Кбит/сек
Ширина : 592 пикселя
Высота : 320 пикселей
Соотношение сторон : 1,850
Частота кадров : 25,000 кадров/сек
Цветовое пространство : YUV
Субдискретизация насыщенности : 4:2:0
Битовая глубина : 8 бит
Тип развёртки : Прогрессивная
Метод сжатия : С потерями
Бит/(Пиксели*Кадры) : 0.185
Размер потока : 600 Мбайт (76%)
Библиотека кодирования : XviD 1.1.2 (UTC 2006-11-01)

Аудио #1
Идентификатор : 1
Формат : MPEG Audio
Версия формата : Version 1
Профиль формата : Layer 3
Режим : Joint stereo
Расширение режима : MS Stereo
Идентификатор кодека : 55
Идентификатор кодека/Подсказка : MP3
Продолжительность : 1 ч. 35 м.
Вид битрейта : Постоянный
Битрейт : 128 Кбит/сек
Каналы : 2 канала
Частота : 48,0 КГц
Метод сжатия : С потерями
Размер потока : 87,7 Мбайт (11%)
Выравнивание : Соединение по промежуткам
Продолжительность промежутка : 40 мс. (1,00 видеокадр)
Время предзагрузки промежутка : 504 мс.
Библиотека кодирования : LAME3.98

Аудио #2
Идентификатор : 2
Формат : MPEG Audio
Версия формата : Version 1
Профиль формата : Layer 3
Режим : Joint stereo
Расширение режима : MS Stereo
Идентификатор кодека : 55
Идентификатор кодека/Подсказка : MP3
Продолжительность : 1 ч. 35 м.
Вид битрейта : Постоянный
Битрейт : 128 Кбит/сек
Каналы : 2 канала
Частота : 48,0 КГц
Метод сжатия : С потерями
Размер потока : 87,7 Мбайт (11%)
Выравнивание : Соединение по промежуткам
Продолжительность промежутка : 40 мс. (1,00 видеокадр)
Время предзагрузки промежутка : 504 мс.
   
Торрент: Зарегистрирован [09 июл 2015, 21:18] Скачать торрент
Скачать торрент
О MediaGet
[ Размер 15.92 КБ / Просмотров 93 ]

Статус:
 
Приватный: Нет (DHT включён)
Размер: 785.54 МБ (823 701 167 байт)
   
Аватара пользователя
Модератор видео
Модератор видео
 
Раздал: 9.46 ТБ
Скачал: 1 ТБ
Ратио: 9.520
Сообщения: 466
Зарегистрирован: 24 янв 2011, 10:36
Откуда: Продажа компьютерных игр STWAM
  • Личное сообщение
  • Сайт

  • Похожие торренты
    Ответы
    Просмотры
    Последнее сообщение

Вернуться в Зарубежные фильмы (Rip's)

Кто сейчас на конференции

Зарегистрированные пользователи: нет зарегистрированных пользователей

Ресурс не предоставляет электронные версии произведений, а занимается лишь коллекционированием и каталогизацией ссылок, присылаемых и публикуемых на форуме нашими читателями. Если вы являетесь правообладателем какого-либо представленного материала и не желаете чтобы ссылка на него находилась в нашем каталоге, свяжитесь с нами и мы незамедлительно удалим её. Файлы для обмена на трекере предоставлены пользователями сайта, и администрация не несёт ответственности за их содержание. Просьба не заливать файлы, защищенные авторскими правами, а также файлы нелегального содержания!
cron