Нет / No (Пабло Ларрейн / Pablo Larraín) [2012, Чили, США, Франция, Мексика, драма, история, HDRip] MVO скачать торрент

Мировая классика кино, Rip, Рипы, Зарубежные фильмы

Модератор: Модераторы видео

  • Статистика раздачи
Размер: 1.45 ГБ   |  Зарегистрирован: 07 июл 2015, 22:25   |   .torrent скачан: 11 раз
Сидеров: 34  [ 0 байт/сек ]     Личеров: 0  [ 0 байт/сек ]  
Список файлов : Кто скачал : Раздают : Скачивают : Кто благодарил : История : Не раздающие : Запрашивали сидеров : Внешние трекеры 
  

Нет / No (Пабло Ларрейн / Pablo Larraín) [2012, Чили, США, Франция, Мексика, драма, история, HDRip] MVO

Сообщение Strelok77795 » 07 июл 2015, 22:25

Нет / No


Страна: Чили, США, Франция, Мексика
Жанр: драма, история
Год выпуска: 2012
Продолжительность: 01:57:55

Перевод: Профессиональный (многоголосый закадровый) Кино без границ
Cубтитры: нет
Режиссер: Пабло Ларрейн / Pablo Larraín

В ролях: Гаэль Гарсия Берналь, Альфредо Кастро, Луис Гнекко, Нестор Кантильяна, Антония Сехерс, Марсьяль Тагле, Паскаль Монтеро, Хайме Вадель

Описание: «Нет» — это один из двух вариантов ответа на вопрос «Должен ли Аугусто Пиночет остаться у власти?». Уверенный в поддержке большинства населения, диктатор назначает дату референдума на 5 октября 1988 года. Но международное давление вынуждает отдать хотя бы какое-то эфирное время оппозиции. 15 минут ночного эфира — за это время сразу нескольким политическим партиям нужно консолидированно объяснить населению, почему нужно проголосовать против. Для этого они приглашают Рене Савейду — успешного рекламщика, много времени прожившего за границей и понимающего современные рекламные технологии

Доп. информация: Оскар, 2013 год
Номинации (1):

Лучший фильм на иностранном языке


Сэмпл



Качество видео: HDRip
Формат видео: AVI

Видео: 720x512, 23.976 fps, XviD MPEG-4 ~1565 kbps avg, 0.177 bit/pixel
Аудио: 48 kHz, AC3 Dolby Digital, 2/0 (L,R) ch, ~192 kbp
General
Complete name : E:\ФИЛЬМЫ\No.2012.HDRip.avi
Format : AVI
Format/Info : Audio Video Interleave
File size : 1.45 GiB
Duration : 1h 57mn
Overall bit rate : 1 766 Kbps
Movie name : No.2012.HDRip
Writing application : VirtualDubModRus 1.5.10.2 (build 2542/release)

Video
ID : 0
Format : MPEG-4 Visual
Format profile : Advanced Simple@L5
Format settings, BVOP : 1
Format settings, QPel : No
Format settings, GMC : No warppoints
Format settings, Matrix : Custom
Codec ID : XVID
Codec ID/Hint : XviD
Duration : 1h 57mn
Bit rate : 1 565 Kbps
Width : 720 pixels
Height : 512 pixels
Display aspect ratio : 1.406
Frame rate : 23.976 fps
Color space : YUV
Chroma subsampling : 4:2:0
Bit depth : 8 bits
Scan type : Progressive
Compression mode : Lossy
Bits/(Pixel*Frame) : 0.177
Stream size : 1.29 GiB (89%)
Writing library : XviD 65

Audio
ID : 1
Format : AC-3
Format/Info : Audio Coding 3
Mode extension : CM (complete main)
Codec ID : 2000
Duration : 1h 57mn
Bit rate mode : Constant
Bit rate : 192 Kbps
Channel(s) : 2 channels
Channel positions : Front: L R
Sampling rate : 48.0 KHz
Bit depth : 16 bits
Compression mode : Lossy
Stream size : 162 MiB (11%)
Alignment : Split accross interleaves
Interleave, duration : 42 ms (1.00 video frame)
Interleave, preload duration : 500 ms
Title : Профессиональный (многоголосый закадровый) - Кино без границ
Чтобы придать фильму больше реализма, он был снят в формате Ю-мэтик (3/4 дюйма), который использовался в конце 1980-х годов.
   
Торрент: Зарегистрирован [07 июл 2015, 22:25] Скачать торрент
Скачать торрент
О MediaGet
[ Размер 15.03 КБ / Просмотров 98 ]

Статус:
 
Приватный: Нет (DHT включён)
Размер: 1.45 ГБ (1 562 224 184 байт)
   
Аватара пользователя

Модератор видео
Модератор видео
 
Раздал: 46.12 ТБ
Скачал: 39.63 ГБ
Ратио: 1223.484
Сообщения: 3493
Фото: 17
Зарегистрирован: 22 сен 2012, 23:13
Medals: 2
1000 раздач! (1) 1 место (1)

Вернуться в Зарубежные фильмы (Rip's)

Кто сейчас на конференции

Зарегистрированные пользователи: bigcatwar

Ресурс не предоставляет электронные версии произведений, а занимается лишь коллекционированием и каталогизацией ссылок, присылаемых и публикуемых на форуме нашими читателями. Если вы являетесь правообладателем какого-либо представленного материала и не желаете чтобы ссылка на него находилась в нашем каталоге, свяжитесь с нами и мы незамедлительно удалим её. Файлы для обмена на трекере предоставлены пользователями сайта, и администрация не несёт ответственности за их содержание. Просьба не заливать файлы, защищенные авторскими правами, а также файлы нелегального содержания!
cron