Однажды в Ирландии / The Guard (Джон Майкл МакДонах / John Michael McDonagh) [2011, Ирландия, триллер, комедия, криминал, HDRip] AVO (Гоблин) + Eng + Sub(rus, eng) скачать торрент

Мировая классика кино, Rip, Рипы, Зарубежные фильмы

Модератор: Модераторы видео

  • Статистика раздачи
Размер: 1.45 ГБ   |  Зарегистрирован: 07 июл 2015, 22:22   |   .torrent скачан: 2 раз
Сидеров: 79  [ 0 байт/сек ]     Личеров: 0  [ 0 байт/сек ]  
Список файлов : Кто скачал : Раздают : Скачивают : Кто благодарил : История : Не раздающие : Запрашивали сидеров : Внешние трекеры 
  

Однажды в Ирландии / The Guard (Джон Майкл МакДонах / John Michael McDonagh) [2011, Ирландия, триллер, комедия, криминал, HDRip] AVO (Гоблин) + Eng + Sub(rus, eng)

Сообщение Strelok77795 » 07 июл 2015, 22:22


Однажды в Ирландии / The Guard
Страна: Ирландия
Жанр: триллер, Комедия, криминал
Год выпуска: 2011
Продолжительность: 01:32:11

Перевод: Авторский (одноголосый закадровый) - Д. Пучков (Гоблин)
Cубтитры: русские, английские
Режиссер: Джон Майкл МакДонах / John Michael McDonagh

В ролях: Брендан Глисон, Дон Чидл, Марк Стронг, Доминик МакЭллигот, Лиам Каннингэм, Дэвид Уилмот, Рори Кинэн, Фионнула Флэнаган, Сара Грин, Катарина Кэс

Описание: Женщины, выпивка и веселые шутки — вот радости добродушного ирландского полицейского, сержанта Джерри Бойла. Он никогда не помышлял о геройстве, пока однажды в Дублине не появился агент ФБР, который призвал незадачливого служителя порядка помочь ему накрыть международную банду наркоторговцев. Смогут ли сработаться веселый рыжий ирландец и решительный афроамериканец? Ведь дело, за которое они взялись, окажется таким же непредсказуемым, как и они сами…





СЭМПЛ

Качество видео: HDRip (The.Guard.LiMiTED.1080p.BluRay.x264-iNFAMOUS)
Формат видео: AVI
Видео:720x304 (2.37:1), 25 fps, XviD build 63 ~1844 kbps avg, 0.34 bit/pixel
Аудио: 48 kHz, AC3 Dolby Digital, 2/0 (L,R) ch, ~192 kbps RUS
Аудио: 48 kHz, AC3 Dolby Digital, 2/0 (L,R) ch, ~192 kbps ENG
General
Complete name : E:\Downloads\Odnazhdy v Irlandii.chopper887.avi
Format : AVI
Format/Info : Audio Video Interleave
File size : 1.45 GiB
Duration : 1h 32mn
Overall bit rate : 2 244 Kbps
Writing application : VirtualDubMod 1.5.10.3 | www.virtualdub-fr.org || (build 2550/release)
Writing library : VirtualDubMod build 2550/release

Video
ID : 0
Format : MPEG-4 Visual
Format profile : Advanced [email protected]
Format settings, BVOP : 2
Format settings, QPel : No
Format settings, GMC : No warppoints
Format settings, Matrix : Custom
Codec ID : XVID
Codec ID/Hint : XviD
Duration : 1h 32mn
Bit rate : 1 846 Kbps
Width : 720 pixels
Height : 304 pixels
Display aspect ratio : 2.35:1
Frame rate : 25.000 fps
Color space : YUV
Chroma subsampling : 4:2:0
Bit depth : 8 bits
Scan type : Progressive
Compression mode : Lossy
Bits/(Pixel*Frame) : 0.337
Stream size : 1.19 GiB (82%)
Writing library : XviD 63

Audio #1
ID : 1
Format : AC-3
Format/Info : Audio Coding 3
Mode extension : CM (complete main)
Codec ID : 2000
Duration : 1h 32mn
Bit rate mode : Constant
Bit rate : 192 Kbps
Channel(s) : 2 channels
Channel positions : Front: L R
Sampling rate : 48.0 KHz
Bit depth : 16 bits
Compression mode : Lossy
Stream size : 127 MiB (9%)
Alignment : Split accross interleaves
Interleave, duration : 40 ms (1.00 video frame)
Interleave, preload duration : 500 ms

Audio #2
ID : 2
Format : AC-3
Format/Info : Audio Coding 3
Mode extension : CM (complete main)
Codec ID : 2000
Duration : 1h 32mn
Bit rate mode : Constant
Bit rate : 192 Kbps
Channel(s) : 2 channels
Channel positions : Front: L R
Sampling rate : 48.0 KHz
Bit depth : 16 bits
Compression mode : Lossy
Stream size : 127 MiB (9%)
Alignment : Split accross interleaves
Interleave, duration : 40 ms (1.00 video frame)
Interleave, preload duration : 500 ms
   
Торрент: Зарегистрирован [07 июл 2015, 22:22] Скачать торрент
Скачать торрент
О MediaGet
[ Размер 15.14 КБ / Просмотров 98 ]

Статус:
 
Приватный: Нет (DHT включён)
Размер: 1.45 ГБ (1 552 023 421 байт)
   
Аватара пользователя

Модератор видео
Модератор видео
 
Раздал: 46.12 ТБ
Скачал: 39.63 ГБ
Ратио: 1223.484
Сообщения: 3491
Фото: 17
Зарегистрирован: 22 сен 2012, 23:13
Medals: 2
1000 раздач! (1) 1 место (1)

  • Похожие торренты
    Ответы
    Просмотры
    Последнее сообщение

Вернуться в Зарубежные фильмы (Rip's)

Кто сейчас на конференции

Зарегистрированные пользователи: Perpetum, walek1404

Ресурс не предоставляет электронные версии произведений, а занимается лишь коллекционированием и каталогизацией ссылок, присылаемых и публикуемых на форуме нашими читателями. Если вы являетесь правообладателем какого-либо представленного материала и не желаете чтобы ссылка на него находилась в нашем каталоге, свяжитесь с нами и мы незамедлительно удалим её. Файлы для обмена на трекере предоставлены пользователями сайта, и администрация не несёт ответственности за их содержание. Просьба не заливать файлы, защищенные авторскими правами, а также файлы нелегального содержания!
cron