Приключения Гекльберри Финна / Die Abenteuer des Huck Finn (Гермина Хунтгебурт / Hermine Huntgeburth) [2012, Германия, приключения, семейный, WEB-DLRip] Dub скачать торрент

Мировая классика кино, Rip, Рипы, Зарубежные фильмы

Модератор: Модераторы видео

  • Статистика раздачи
Размер: 1.37 ГБ   |  Зарегистрирован: 07 июл 2015, 22:17   |   .torrent скачан: 10 раз
Сидеров: 87  [ 0 байт/сек ]     Личеров: 0  [ 0 байт/сек ]  
Список файлов : Кто скачал : Раздают : Скачивают : Кто благодарил : История : Не раздающие : Запрашивали сидеров : Внешние трекеры 
  

Приключения Гекльберри Финна / Die Abenteuer des Huck Finn (Гермина Хунтгебурт / Hermine Huntgeburth) [2012, Германия, приключения, семейный, WEB-DLRip] Dub

Сообщение Strelok77795 » 07 июл 2015, 22:17

Приключения Гекльберри Финна / Die Abenteuer des Huck Finn

Страна: Германия
Жанр: приключения, семейный
Год выпуска: 2012
Продолжительность: 01:40:24

Перевод: Профессиональный (дублированный)
Cубтитры: нет
Режиссер: Гермина Хунтгебурт / Hermine Huntgeburth

В ролях: Леон Сидел, Луис Хофманн, Джеки Идо, Аугуст Диль, Хайке Макач, Петер Ломайер, Михаэль Гвиздек, Курт Крюмер, Хиннерк Шонеманн, Хенри Хюбхен

Описание: Кто не знает Тома Сойера и Гекльберри Финна? Найдя сокровища, эти два проказника наконец разбогатели. Однако «свободный волк» Гек не может усидеть на месте. К тому же его добрый друг, чернокожий Джим, в опасности — хозяйка собирается продать его на аукционе. В компании Джима Гек отправляется мимо диких берегов Миссисипи — сначала в Каир, а потом и в Огайо, в свободную страну, не знающую рабства… А значит, впереди беглецов ждёт множество самых невероятных приключений! Будет ли счастливый конец у этой полной опасностей истории? И увидятся ли снова закадычные друзья Том Сойер и Гекльберри Финн?

Сэмпл: http://multi-up.com/873118

Качество видео: WEB-DLRip
Формат видео: AVI

Видео: XviD, 720x304, 25.000 fps, ~ 1725 Kbit/s
Аудио: АС3, 48000 Hz, 2 каналов, 192 kbit/s
Общее
Полное имя : D:\Prikluchenija.Geklberi.Fena_2012.WEBRip.avi
Формат : AVI
Формат/Информация : Audio Video Interleave
Размер файла : 1,37 Гбайт
Продолжительность : 1 ч. 40 м.
Общий поток : 1952 Кбит/сек
Программа кодирования : VirtualDubMod 1.5.10.3 | http://www.virtualdub-fr.org || (build 2550/release)
Библиотека кодирования : VirtualDubMod build 2550/release

Видео
Идентификатор : 0
Формат : MPEG-4 Visual
Профиль формата : Advanced [email protected]
Параметр BVOP формата : 2
Параметр QPel формата : Нет
Параметр GMC формата : Без точки перехода
Параметр матрицы формата : Default (MPEG)
Идентификатор кодека : XVID
Идентификатор кодека/Подсказка : XviD
Продолжительность : 1 ч. 40 м.
Битрейт : 1750 Кбит/сек
Ширина : 720 пикселей
Высота : 304 пикселя
Соотношение сторон : 2,35:1
Частота кадров : 25,000 кадров/сек
Цветовое пространство : YUV
Субдискретизация насыщенности : 4:2:0
Битовая глубина : 8 бит
Тип развёртки : Прогрессивная
Метод сжатия : С потерями
Бит/(Пиксели*Кадры) : 0.320
Размер потока : 1,23 Гбайт (90%)
Библиотека кодирования : XviD 1.2.1 (UTC 2008-12-04)

Аудио
Идентификатор : 1
Формат : AC-3
Формат/Информация : Audio Coding 3
Расширение режима : CM (complete main)
Параметр Endianness формата : Big
Идентификатор кодека : 2000
Продолжительность : 1 ч. 40 м.
Вид битрейта : Постоянный
Битрейт : 192 Кбит/сек
Каналы : 2 канала
Расположение каналов : Front: L R
Частота : 48,0 КГц
Битовая глубина : 16 бит
Метод сжатия : С потерями
Размер потока : 138 Мбайт (10%)
Выравнивание : Разделение по промежуткам
Продолжительность промежутка : 40 мс. (1,00 видеокадр)
Время предзагрузки промежутка : 500 мс.
   
Торрент: Зарегистрирован [07 июл 2015, 22:17] Скачать торрент
Скачать торрент
О MediaGet
[ Размер 14.29 КБ / Просмотров 101 ]

Статус:
 
Приватный: Нет (DHT включён)
Размер: 1.37 ГБ (1 469 507 584 байт)
   
Аватара пользователя

Модератор видео
Модератор видео
 
Раздал: 46.12 ТБ
Скачал: 39.63 ГБ
Ратио: 1223.484
Сообщения: 3491
Фото: 17
Зарегистрирован: 22 сен 2012, 23:13
Medals: 2
1000 раздач! (1) 1 место (1)

Вернуться в Зарубежные фильмы (Rip's)

Кто сейчас на конференции

Зарегистрированные пользователи: Perpetum, walek1404

Ресурс не предоставляет электронные версии произведений, а занимается лишь коллекционированием и каталогизацией ссылок, присылаемых и публикуемых на форуме нашими читателями. Если вы являетесь правообладателем какого-либо представленного материала и не желаете чтобы ссылка на него находилась в нашем каталоге, свяжитесь с нами и мы незамедлительно удалим её. Файлы для обмена на трекере предоставлены пользователями сайта, и администрация не несёт ответственности за их содержание. Просьба не заливать файлы, защищенные авторскими правами, а также файлы нелегального содержания!
cron