Конец игры / Endgame (Пит Трэвис / Pete Travis) [2009, Великобритания, драма, история, HDRip] скачать торрент

Мировая классика кино, Rip, Рипы, Зарубежные фильмы

Модератор: Модераторы видео

  • Статистика раздачи
Размер: 2.19 ГБ   |  Зарегистрирован: 04 июл 2015, 21:42   |   .torrent скачан: 0 раз
Сидеров: 0  [ 0 байт/сек ]     Личеров: 0  [ 0 байт/сек ]  
Список файлов : Кто скачал : Раздают : Скачивают : Кто благодарил : История : Не раздающие : Запрашивали сидеров : Внешние трекеры 
  

Конец игры / Endgame (Пит Трэвис / Pete Travis) [2009, Великобритания, драма, история, HDRip]

Сообщение pitius76m » 04 июл 2015, 21:42

Страна: Великобритания
Жанр: драма, история
Год выпуска: 2009
Продолжительность: 01:48:50
Перевод: Студийный (одноголосый закадровый) BBC Saint-Petersburg
Cубтитры: русские, английские (srt)
Оригинальная аудиодорожка: английский
Режиссер: Пит Трэвис / Pete Travis

В ролях: Уильям Хёрт, Чиветел Эджиофор, Джонни Ли Миллер, Марк Стронг, Кларк Питерс, Джон Кэни, Дерек Джекоби, Амелия Баллмор, Доминик Данилевич, Кас Грэхэм

Описание: События фильма происходят в Южной Африке конца восьмидесятых, времён разгула апартеида. Весь мир требует отмены жестокого режима, но дело никак не может сдвинуться с мёртвой точки. Страной правит расист Питер Виллем Бота, лидер и идеолог движения Сопротивления Нельсон Мандела сидит в тюрьме, глава партии Сопротивления Оливер Тамбо изгнан из страны, ситуация крайне неустойчива. Британский горнодобывающий концерн «Голдфилдз», понимая, что свои интересы легче блюсти в стабильном государстве, решает финансировать переговоры противоборствующих сторон. За дело берутся пиар-директор «Голфилдза» Майкл Янг, профессор философии африкандер Вилли Эстергази, а со стороны Сопротивления – глава их отдела информации Табо Мбеки. Процесс контролирует Служба национальной безопасности ЮАР в лице доктора Нила Барнарда. Многолетнее непонимание, амбиции и обиды, жестокие теракты и заказные убийства препятствуют процессу переговоров. Но человеческая порядочность, умение идти на уступки, терпение и смелость приводят, наконец, к долгожданным результатам.

Качество видео: HDRip (BDRip 1080p)
Формат видео: AVI
Видео: XviD, 1962 kbps, 720 х 400 pixels, 23.976 fps
Аудио 1: AC3, 448 Kbps, 6 channels, Front: L C R, Side: L R, LFE, 48.0 KHz, 16 bits - Rus
Аудио 2: AC3, 448 Kbps, 6 channels, Front: L C R, Side: L R, LFE, 48.0 KHz, 16 bits - Eng

General
Complete name : D:\kirovtorrent\Endgame.2009\Endgame.2009.HDRip.2.18Gb.avi
Format : AVI
Format/Info : Audio Video Interleave
Format profile : OpenDML
File size : 2.19 GiB
Duration : 1h 48mn
Overall bit rate : 2 875 Kbps
Writing application : VirtualDubMod 1.5.10.3 | http://www.virtualdub-fr.org || (build 2550/release)
Writing library : VirtualDubMod build 2550/release

Video
ID : 0
Format : MPEG-4 Visual
Format profile : Advanced [email protected]
Format settings, BVOP : Yes
Format settings, QPel : No
Format settings, GMC : No warppoints
Format settings, Matrix : Default (MPEG)
Codec ID : XVID
Codec ID/Hint : XviD
Duration : 1h 48mn
Bit rate : 1 962 Kbps
Width : 720 pixels
Height : 400 pixels
Display aspect ratio : 16:9
Frame rate : 23.976 fps
Color space : YUV
Chroma subsampling : 4:2:0
Bit depth : 8 bits
Scan type : Progressive
Compression mode : Lossy
Bits/(Pixel*Frame) : 0.284
Stream size : 1.49 GiB (68%)
Writing library : XviD 73

Audio #1
ID : 1
Format : AC-3
Format/Info : Audio Coding 3
Mode extension : CM (complete main)
Format settings, Endianness : Big
Codec ID : 2000
Duration : 1h 48mn
Bit rate mode : Constant
Bit rate : 448 Kbps
Channel(s) : 6 channels
Channel positions : Front: L C R, Side: L R, LFE
Sampling rate : 48.0 KHz
Bit depth : 16 bits
Compression mode : Lossy
Stream size : 349 MiB (16%)
Alignment : Split accross interleaves
Interleave, duration : 42 ms (1.00 video frame)
Interleave, preload duration : 500 ms

Audio #2
ID : 2
Format : AC-3
Format/Info : Audio Coding 3
Mode extension : CM (complete main)
Format settings, Endianness : Big
Codec ID : 2000
Duration : 1h 48mn
Bit rate mode : Constant
Bit rate : 448 Kbps
Channel(s) : 6 channels
Channel positions : Front: L C R, Side: L R, LFE
Sampling rate : 48.0 KHz
Bit depth : 16 bits
Compression mode : Lossy
Stream size : 349 MiB (16%)
Alignment : Split accross interleaves
Interleave, duration : 42 ms (1.00 video frame)
Interleave, preload duration : 500 ms
   
Торрент: Зарегистрирован [04 июл 2015, 21:42] Скачать торрент
Скачать торрент
О MediaGet
[ Размер 11.57 КБ / Просмотров 105 ]

Статус:
 
Приватный: Нет (DHT включён)
Размер: 2.19 ГБ (2 347 177 836 байт)
   
Аватара пользователя
Модератор видео
Модератор видео
 
Раздал: 9.46 ТБ
Скачал: 1 ТБ
Ратио: 9.520
Сообщения: 466
Зарегистрирован: 24 янв 2011, 10:36
Откуда: Продажа компьютерных игр STWAM
  • Личное сообщение
  • Сайт

Вернуться в Зарубежные фильмы (Rip's)

Кто сейчас на конференции

Зарегистрированные пользователи: нет зарегистрированных пользователей

Ресурс не предоставляет электронные версии произведений, а занимается лишь коллекционированием и каталогизацией ссылок, присылаемых и публикуемых на форуме нашими читателями. Если вы являетесь правообладателем какого-либо представленного материала и не желаете чтобы ссылка на него находилась в нашем каталоге, свяжитесь с нами и мы незамедлительно удалим её. Файлы для обмена на трекере предоставлены пользователями сайта, и администрация не несёт ответственности за их содержание. Просьба не заливать файлы, защищенные авторскими правами, а также файлы нелегального содержания!
cron