Убийства на Сандхамне / Murders in Sandhamn / Morden i Sandhamn / Сезон: 2 / Серии: 1-3 (3) (Маркус Олссон) [2012, Детектив, драма, DVDRip] скачать торрент

Мировая классика кино, Rip, Рипы, Зарубежные фильмы

Модератор: Модераторы видео

  • Статистика раздачи
Размер: 2.23 ГБ   |  Зарегистрирован: 29 апр 2015, 21:51   |   .torrent скачан: 2 раз
Сидеров: 186  [ 0 байт/сек ]     Личеров: 1049  [ 0 байт/сек ]  
Список файлов : Кто скачал : Раздают : Скачивают : Кто благодарил : История : Не раздающие : Запрашивали сидеров : Внешние трекеры 
  

Убийства на Сандхамне / Murders in Sandhamn / Morden i Sandhamn / Сезон: 2 / Серии: 1-3 (3) (Маркус Олссон) [2012, Детектив, драма, DVDRip]

Сообщение pitius76m » 29 апр 2015, 21:51

Убийства на Сандхамне | Murders in Sandhamn | Morden i Sandhamn

Год выпуска: 2012
Страна: Швеция
Жанр: детектив
Продолжительность: ~00:42:00
Перевод: Профессиональный (многоголосый закадровый) Студия Jaskier
Русские субтитры: нет
Режиссёр: Маркус Олссон
В ролях: Якоб Сердергрен, Александра Рапапорт, Йонас Мальмшё, София Пеккари, Харриет Андерссон, Анки Лиден и др.
Описание: Жарским июльским днём в доме Норы Линде собирается компания, чтобы чествовать победителей Готландской гонки на яхтах, в которой принимает участие муж Норы, Хенрик. На подходе к причалу капитан яхты, Оскар Юлиандер, падает замертво, сражённый в грудь пулей. Откуда был выстрел? Кто стрелял? Почему?
Инспектору полиции Томасу Андреассону вместе с новой напарницей, Мией Холгрен, предстоит расследование убийства и изучение фактов биографии Оскара, являющегося адвокатом по банкротствам и председателем Шведского Королевского Яхт-клуба.




Качество: DVDRip
Формат: AVI
Видео кодек: XviD
Аудио кодек: AC3
Видео: 720x400 (16:9), 25 fps, 1803 kbps avg, XviD MPEG-4, 0.250 bit/pixel
Аудио: Dolby AC3, 48000Hz, stereo, 192 kbps Русский
Аудио 2: Dolby AC3, 48000Hz, 6 ch, 448 Kbps Оригинал (Шведский)
General
Complete name : N:\Morden i Sandhamn Season 2 Jaskier\Morden i Sandhamn.s02e01.Jaskier.avi
Format : AVI
Format/Info : Audio Video Interleave
File size : 760 MiB
Duration : 43mn 14s
Overall bit rate : 2 457 Kbps
Writing application : VirtualDubMod 1.5.10.2 (build 2540/release)
Writing library : VirtualDubMod build 2540/release

Video
ID : 0
Format : MPEG-4 Visual
Format profile : Advanced [email protected]
Format settings, BVOP : 1
Format settings, QPel : No
Format settings, GMC : No warppoints
Format settings, Matrix : Default (H.263)
Muxing mode : Packed bitstream
Codec ID : XVID
Codec ID/Hint : XviD
Duration : 43mn 14s
Bit rate : 1 803 Kbps
Width : 720 pixels
Height : 400 pixels
Display aspect ratio : 16:9
Frame rate : 25.000 fps
Color space : YUV
Chroma subsampling : 4:2:0
Bit depth : 8 bits
Scan type : Progressive
Compression mode : Lossy
Bits/(Pixel*Frame) : 0.250
Stream size : 558 MiB (73%)
Writing library : XviD 64

Audio #1
ID : 1
Format : AC-3
Format/Info : Audio Coding 3
Mode extension : CM (complete main)
Format settings, Endianness : Big
Codec ID : 2000
Duration : 43mn 14s
Bit rate mode : Constant
Bit rate : 192 Kbps
Channel(s) : 2 channels
Channel positions : Front: L R
Sampling rate : 48.0 KHz
Bit depth : 16 bits
Compression mode : Lossy
Stream size : 59.4 MiB (8%)
Alignment : Split accross interleaves
Interleave, duration : 40 ms (1.00 video frame)
Interleave, preload duration : 500 ms

Audio #2
ID : 2
Format : AC-3
Format/Info : Audio Coding 3
Mode extension : CM (complete main)
Format settings, Endianness : Big
Codec ID : 2000
Duration : 43mn 14s
Bit rate mode : Constant
Bit rate : 448 Kbps
Channel(s) : 6 channels
Channel positions : Front: L C R, Side: L R, LFE
Sampling rate : 48.0 KHz
Bit depth : 16 bits
Compression mode : Lossy
Stream size : 139 MiB (18%)
Alignment : Split accross interleaves
Interleave, duration : 40 ms (1.00 video frame)
Interleave, preload duration : 500 ms
   
Торрент: Зарегистрирован [29 апр 2015, 21:51] Скачать торрент
Скачать торрент
О MediaGet
[ Размер 11.95 КБ / Просмотров 52 ]

Статус:
 
Приватный: Нет (DHT включён)
Размер: 2.23 ГБ (2 391 982 080 байт)
   
Аватара пользователя
Модератор видео
Модератор видео
 
Раздал: 9.46 ТБ
Скачал: 1 ТБ
Ратио: 9.520
Сообщения: 466
Зарегистрирован: 24 янв 2011, 10:36
Откуда: Продажа компьютерных игр STWAM
  • Личное сообщение
  • Сайт

Вернуться в Зарубежные фильмы (Rip's)

Кто сейчас на конференции

Зарегистрированные пользователи: bigcatwar, ванюшка

Ресурс не предоставляет электронные версии произведений, а занимается лишь коллекционированием и каталогизацией ссылок, присылаемых и публикуемых на форуме нашими читателями. Если вы являетесь правообладателем какого-либо представленного материала и не желаете чтобы ссылка на него находилась в нашем каталоге, свяжитесь с нами и мы незамедлительно удалим её. Файлы для обмена на трекере предоставлены пользователями сайта, и администрация не несёт ответственности за их содержание. Просьба не заливать файлы, защищенные авторскими правами, а также файлы нелегального содержания!
cron