Убийства на Сандхамне / Murders in Sandhamn / Morden i Sandhamn / Сезон: 1 / Серии: 1-3 (3) (Маркус Олссон) [2010, Детектив, драма, DVDRip] скачать торрент

Мировая классика кино, Rip, Рипы, Зарубежные фильмы

Модератор: Модераторы видео

  • Статистика раздачи
Размер: 2.23 ГБ   |  Зарегистрирован: 29 апр 2015, 21:47   |   .torrent скачан: 12 раз
Сидеров: 195  [ 0 байт/сек ]     Личеров: 988  [ 0 байт/сек ]  
Список файлов : Кто скачал : Раздают : Скачивают : Кто благодарил : История : Не раздающие : Запрашивали сидеров : Внешние трекеры 
  

Убийства на Сандхамне / Murders in Sandhamn / Morden i Sandhamn / Сезон: 1 / Серии: 1-3 (3) (Маркус Олссон) [2010, Детектив, драма, DVDRip]

Сообщение pitius76m » 29 апр 2015, 21:47

Убийства на Сандхамне | Murders in Sandhamn | Morden i Sandhamn
#77
Год выпуска: 2010
Страна: Швеция
Жанр: детектив
Продолжительность: ~00:42:00
Перевод: Профессиональный (многоголосый закадровый) Студия Jaskier
Субтитры: нет
Режиссёр: Маркус Олссон
В ролях: Якоб Сердергрен, Александра Рапапорт, Йонас Мальмшё, София Пеккари, Харриет Андерссон, Анки Лиден и др.
Описание: В одно прекрасное июльское утро на идиллическом острове Сандхамн, поблизости от Стокгольма, Нора Линде, отдыхающая с детьми на пляже, обнаруживает в воде труп мужчины и сообщает об этом в столичную полицию. Поначалу складывается впечатление, что произошёл несчастный случай, но инспектору Томасу Андреассону, расследующему дело, чутьё подсказывает, что речь идёт об убийстве. Неожиданно он получает помощь и поддержку Норы, работающей юристом, и когда-то учившейся вместе с ним в школе.[hr]



Качество: DVDRip
Формат: AVI
Видео кодек: XviD
Аудио кодек: AC3
Видео: 720x400 (16:9), 25 fps, 1855 kbps avg, XviD MPEG-4, 0.258 bit/pixel
Аудио: Dolby AC3, 48000Hz, stereo, 192 kbps Русский
Аудио 2: Dolby AC3, 48000Hz, 6 ch, 448 Kbps Оригинал (Шведский)
General
Complete name : N:\Morden i Sandhamn Season 1 Jaskier\Morden i Sandhamn.s01e01.Jaskier.avi
Format : AVI
Format/Info : Audio Video Interleave
File size : 758 MiB
Duration : 42mn 15s
Overall bit rate : 2 509 Kbps
Writing application : VirtualDubMod 1.5.10.2 (build 2540/release)
Writing library : VirtualDubMod build 2540/release

Video
ID : 0
Format : MPEG-4 Visual
Format profile : Advanced Simple@L5
Format settings, BVOP : 2
Format settings, QPel : No
Format settings, GMC : No warppoints
Format settings, Matrix : Default (H.263)
Muxing mode : Packed bitstream
Codec ID : XVID
Codec ID/Hint : XviD
Duration : 42mn 15s
Bit rate : 1 855 Kbps
Width : 720 pixels
Height : 400 pixels
Display aspect ratio : 16:9
Frame rate : 25.000 fps
Color space : YUV
Chroma subsampling : 4:2:0
Bit depth : 8 bits
Scan type : Progressive
Compression mode : Lossy
Bits/(Pixel*Frame) : 0.258
Stream size : 561 MiB (74%)
Writing library : XviD 64

Audio #1
ID : 1
Format : AC-3
Format/Info : Audio Coding 3
Mode extension : CM (complete main)
Format settings, Endianness : Big
Codec ID : 2000
Duration : 42mn 14s
Bit rate mode : Constant
Bit rate : 192 Kbps
Channel(s) : 2 channels
Channel positions : Front: L R
Sampling rate : 48.0 KHz
Bit depth : 16 bits
Compression mode : Lossy
Stream size : 58.0 MiB (8%)
Alignment : Split accross interleaves
Interleave, duration : 40 ms (1.00 video frame)
Interleave, preload duration : 500 ms

Audio #2
ID : 2
Format : AC-3
Format/Info : Audio Coding 3
Mode extension : CM (complete main)
Format settings, Endianness : Big
Codec ID : 2000
Duration : 42mn 14s
Bit rate mode : Constant
Bit rate : 448 Kbps
Channel(s) : 6 channels
Channel positions : Front: L C R, Side: L R, LFE
Sampling rate : 48.0 KHz
Bit depth : 16 bits
Compression mode : Lossy
Stream size : 135 MiB (18%)
Alignment : Split accross interleaves
Interleave, duration : 40 ms (1.00 video frame)
Interleave, preload duration : 500 ms
   
Торрент: Зарегистрирован [29 апр 2015, 21:47] Скачать торрент
Скачать торрент
О MediaGet
[ Размер 11.95 КБ / Просмотров 57 ]

Статус:
 
Приватный: Нет (DHT включён)
Размер: 2.23 ГБ (2 391 488 512 байт)
   
Аватара пользователя
Модератор видео
Модератор видео
 
Раздал: 9.46 ТБ
Скачал: 1 ТБ
Ратио: 9.520
Сообщения: 466
Зарегистрирован: 24 янв 2011, 10:36
Откуда: Продажа компьютерных игр STWAM
  • Личное сообщение
  • Сайт

Вернуться в Зарубежные фильмы (Rip's)

Кто сейчас на конференции

Зарегистрированные пользователи: bigcatwar

Ресурс не предоставляет электронные версии произведений, а занимается лишь коллекционированием и каталогизацией ссылок, присылаемых и публикуемых на форуме нашими читателями. Если вы являетесь правообладателем какого-либо представленного материала и не желаете чтобы ссылка на него находилась в нашем каталоге, свяжитесь с нами и мы незамедлительно удалим её. Файлы для обмена на трекере предоставлены пользователями сайта, и администрация не несёт ответственности за их содержание. Просьба не заливать файлы, защищенные авторскими правами, а также файлы нелегального содержания!
cron