Хардкор / Шлюхи / Самый откровенный / Hardcore (Дэннис Илиадис / Dennis Iliadis) [2004, Греция, драма, криминал, DVDRip] AVO (Сергей Кузнецов) скачать торрент

Мировая классика кино, Rip, Рипы, Зарубежные фильмы

Модератор: Модераторы видео

  • Статистика раздачи
Размер: 1.45 ГБ   |  Зарегистрирован: 18 апр 2015, 15:27   |   .torrent скачан: 44 раз
Сидеров: 1  [ 0 байт/сек ]     Личеров: 0  [ 0 байт/сек ]  
Список файлов : Кто скачал : Раздают : Скачивают : Кто благодарил : История : Не раздающие : Запрашивали сидеров : Внешние трекеры 
  

Хардкор / Шлюхи / Самый откровенный / Hardcore (Дэннис Илиадис / Dennis Iliadis) [2004, Греция, драма, криминал, DVDRip] AVO (Сергей Кузнецов)

Сообщение Боцман » 18 апр 2015, 15:27

Хардкор / Шлюхи / Самый откровенный / Hardcore


Страна: Греция
Жанр: драма, криминал
Год выпуска: 2004
Продолжительность: 01:35:34

Перевод: Авторский (одноголосый закадровый) Сергей Кузнецов
Cубтитры: нет
Оригинальная аудиодорожка: нет

Режиссер: Дэннис Илиадис / Dennis Iliadis

В ролях: Катерина Цавалу /Katerina Tsavalou/, Данай Скиади /Danai Skiadi/, Иоаннис Папзисис /Ioannis Papazisis/, Омирос Пулакис /Omiros Poulakis/, Андреас Марианос /Andreas Marianos/, Димитрис Лиолиос /Dimitris Liolios/, Константинос Аварикиотис /Konstadinos Avarikiotis/, Яннис Станкоглу /Yannis Stankoglou/, Антонис Ператикос /Antonis Peratikos/, Стелиос Христофоридис /Stelios Christoforidis/

О фильме: Нашумевший фильм молодого греческого режиссера Дэнниса Илиадиса о четырех юных проститутках в современных Афинах - провокационный и свежий взгляд на древнейшую профессию.

Фильм отмечен критиками журнала Variety как один из лучших фильмов новых европейских режиссеров 2005 года, получил престижную премию German Independence Award. Малобюджетная картина хорошо продавалась, что говорит о способности Илиадиса, как режиссера, заниматься творчеством, будучи ограниченным в средствах.




Качество видео: DVDRip
Формат видео: AVI

Видео: 688x384 (1.79:1), 25 fps, XviD build 73 ~1969 kbps avg, 0.29 bit/pixel
Аудио: 48 kHz, AC3 Dolby Digital, 2/0 (L,R) ch, ~192 kbps avg
Общее
Полное имя : E:\Фильмы\Хардкор (Шлюхи)\Hardcore.2004.DVDRip.avi
Формат : AVI
Формат/Информация : Audio Video Interleave
Размер файла : 1,45 Гбайт
Продолжительность : 1 ч. 35 м.
Общий поток : 2170 Кбит/сек
Программа кодирования : VirtualDubMod 1.5.10.2 (build 2540/release)
Библиотека кодирования : VirtualDubMod build 2540/release
Правообладатель : rip by Judas_X

Видео
Идентификатор : 0
Формат : MPEG-4 Visual
Профиль формата : Advanced [email protected]
Параметр BVOP формата : 1
Параметр QPel формата : Нет
Параметр GMC формата : Без точки перехода
Параметр матрицы формата : Выборочная
Идентификатор кодека : XVID
Идентификатор кодека/Подсказка : XviD
Продолжительность : 1 ч. 35 м.
Битрейт : 1969 Кбит/сек
Ширина : 688 пикселей
Высота : 384 пикселя
Соотношение сторон : 16:9
Частота кадров : 25,000 кадров/сек
Цветовое пространство : YUV
Субдискретизация насыщенности : 4:2:0
Битовая глубина : 8 бит
Тип развёртки : Прогрессивная
Метод сжатия : С потерями
Бит/(Пиксели*Кадры) : 0.298
Размер потока : 1,31 Гбайт (91%)
Библиотека кодирования : XviD 73

Аудио
Идентификатор : 1
Формат : AC-3
Формат/Информация : Audio Coding 3
Расширение режима : CM (complete main)
Параметр Endianness формата : Big
Идентификатор кодека : 2000
Продолжительность : 1 ч. 35 м.
Вид битрейта : Постоянный
Битрейт : 192 Кбит/сек
Каналы : 2 канала
Расположение каналов : Front: L R
Частота : 48,0 КГц
Битовая глубина : 16 бит
Метод сжатия : С потерями
Размер потока : 131 Мбайт (9%)
Выравнивание : Разделение по промежуткам
Продолжительность промежутка : 40 мс. (1,00 видеокадр)
Время предзагрузки промежутка : 500 мс.
Old Rip:


New Rip:


   
Торрент: Зарегистрирован [18 апр 2015, 15:27] Скачать торрент
Скачать торрент
О MediaGet
[ Размер 14.97 КБ / Просмотров 122 ]

Статус:
 
Приватный: Нет (DHT включён)
Размер: 1.45 ГБ (1 555 730 432 байт)
   
Хочешь стать частью команды MZ-Tracker?
Запишись
ТУТ
Аватара пользователя

Убийца клавиатуры
Убийца клавиатуры
 
Раздал: 12.57 ГБ
Скачал: 907.51 ГБ
Ратио: 0.017
Сообщения: 4358
Фото: 292
Зарегистрирован: 19 июн 2008, 23:00

Вернуться в Зарубежные фильмы (Rip's)

Кто сейчас на конференции

Зарегистрированные пользователи: божик

Ресурс не предоставляет электронные версии произведений, а занимается лишь коллекционированием и каталогизацией ссылок, присылаемых и публикуемых на форуме нашими читателями. Если вы являетесь правообладателем какого-либо представленного материала и не желаете чтобы ссылка на него находилась в нашем каталоге, свяжитесь с нами и мы незамедлительно удалим её. Файлы для обмена на трекере предоставлены пользователями сайта, и администрация не несёт ответственности за их содержание. Просьба не заливать файлы, защищенные авторскими правами, а также файлы нелегального содержания!
cron