Игра / The Game (Дэвид Финчер / David Fincher) [1997, США, триллер, приключения, BDRip-AVC] скачать торрент

Мировая классика кино, Rip, Рипы, Зарубежные фильмы

Модератор: Модераторы видео

  • Статистика раздачи
Размер: 4.37 ГБ   |  Зарегистрирован: 12 мар 2015, 17:39   |   .torrent скачан: 12 раз
Сидеров: 0  [ 0 байт/сек ]     Личеров: 0  [ 0 байт/сек ]  
Список файлов : Кто скачал : Раздают : Скачивают : Кто благодарил : История : Не раздающие : Запрашивали сидеров : Внешние трекеры 
  

Игра / The Game (Дэвид Финчер / David Fincher) [1997, США, триллер, приключения, BDRip-AVC]

Сообщение Боцман » 12 мар 2015, 17:39

Игра / The Game

Страна: США
Жанр
: триллер, приключения
Год выпуска: 1997
Продолжительность: 02:08:48
Перевод 1: Профессиональный (многоголосый закадровый) Позитив-Мультимедиа
Перевод 2: Профессиональный (дублированный) DVD-Group
Перевод 3: Профессиональный (двухголосый закадровый) Liga HQ
Cубтитры: русские, английские
Оригинальная аудиодорожка: английский
Режиссер: Дэвид Финчер / David Fincher

В ролях: Майкл Дуглас, Шон Пенн, Дебора Кара Ангер, Джеймс Ребхорн, Питер Донат, Кэррол Бейкер, Анна Катарина, Армин Мюллер-Шталь, Чарльз Мартине, Юдзи Окумото
Описание: Николас Ван Ортон - само воплощение успеха. Он преуспевает, он невозмутим и спокоен, привык держать любую ситуацию под контролем. На день рождения Николас получает необычный подарок - билет для участия в "Игре". Ему обещают, что игра вернет яркие чувства, позволит ощутить вкус и остроту жизни. Вступив в игру, Николас начинает осознавать, что это игра всерьез, игра не на жизнь, а на смерть.
Качество видео:
Формат видео: MKV
Видео: x.264, 1152x480, 3639 kbps, 23,976 fps
Аудио 1: AC3, 48000 Hz, 448 kbps, 5.1 channels - MVO (Позитив-Мультимедиа)
Аудио 2: AC3, 48000 Hz, 384 kbps, 5.1 channels - Dub (DVD-Group / ремастер Позитив-Мультимедиа)
Аудио 3: AC3, 48000 Hz, 384 kbps, 5.1 channels - DVO (Liga HQ)
Формат субтитров: softsub (SRT) - русские (2 вида), английские








Код:
Код: Выделить всё
Format                                   : Matroska
Format version                           : Version 4 / Version 2
File size                                : 4.37 GiB
Duration                                 : 2h 8mn
Overall bit rate                         : 4 853 Kbps
Movie name                               : Игра / The Game (1997) BDRip-AVC by RG Torrents.ru
Encoded date                             : UTC 2014-08-01 15:40:10
Writing application                      : mkvmerge v7.1.0 ('Good Love') 32bit built on Jul 27 2014 12:59:18
Writing library                          : libebml v1.3.0 + libmatroska v1.4.1
Cover                                    : Yes

Video
ID                                       : 1
Format                                   : AVC
Format/Info                              : Advanced Video Codec
Format profile                           : [email protected]
Format settings, CABAC                   : Yes
Format settings, ReFrames                : 12 frames
Codec ID                                 : V_MPEG4/ISO/AVC
Duration                                 : 2h 8mn
Bit rate                                 : 3 639 Kbps
Width                                    : 1 152 pixels
Height                                   : 480 pixels
Display aspect ratio                     : 2.40:1
Frame rate mode                          : Constant
Frame rate                               : 23.976 fps
Color space                              : YUV
Chroma subsampling                       : 4:2:0
Bit depth                                : 8 bits
Scan type                                : Progressive
Bits/(Pixel*Frame)                       : 0.274
Stream size                              : 3.19 GiB (73%)
Title                                    : RG Torrents.ru
Writing library                          : x264 core 142 r2409 d6b4e63
Encoding settings                        : cabac=1 / ref=12 / deblock=1:-3:-2 / analyse=0x3:0x113 / me=umh / subme=10 / psy=1 / psy_rd=1.05:0.10 / mixed_ref=1 / me_range=48 / chroma_me=1 / trellis=2 / 8x8dct=1 / cqm=0 / deadzone=21,11 / fast_pskip=0 / chroma_qp_offset=-3 / threads=3 / lookahead_threads=1 / sliced_threads=0 / nr=0 / decimate=1 / interlaced=0 / bluray_compat=0 / constrained_intra=0 / bframes=10 / b_pyramid=2 / b_adapt=2 / b_bias=0 / direct=3 / weightb=1 / open_gop=0 / weightp=2 / keyint=240 / keyint_min=23 / scenecut=40 / intra_refresh=0 / rc_lookahead=60 / rc=2pass / mbtree=0 / bitrate=3639 / ratetol=1.0 / qcomp=0.60 / qpmin=0 / qpmax=69 / qpstep=4 / cplxblur=20.0 / qblur=0.5 / vbv_maxrate=20000 / vbv_bufsize=25000 / nal_hrd=none / filler=0 / ip_ratio=1.30 / pb_ratio=1.30 / aq=2:0.80 / zones=177960,185176,b=0.3
Language                                 : English
Default                                  : Yes
Forced                                   : No

Audio #1
ID                                       : 2
Format                                   : AC-3
Format/Info                              : Audio Coding 3
Mode extension                           : CM (complete main)
Format settings, Endianness              : Big
Codec ID                                 : A_AC3
Duration                                 : 2h 8mn
Bit rate mode                            : Constant
Bit rate                                 : 448 Kbps
Channel(s)                               : 6 channels
Channel positions                        : Front: L C R, Side: L R, LFE
Sampling rate                            : 48.0 KHz
Bit depth                                : 16 bits
Compression mode                         : Lossy
Stream size                              : 413 MiB (9%)
Title                                    : MVO (Pozitiv-Multimedia)
Language                                 : Russian
Default                                  : Yes
Forced                                   : No

Audio #2
ID                                       : 3
Format                                   : AC-3
Format/Info                              : Audio Coding 3
Mode extension                           : CM (complete main)
Format settings, Endianness              : Big
Codec ID                                 : A_AC3
Duration                                 : 2h 8mn
Bit rate mode                            : Constant
Bit rate                                 : 384 Kbps
Channel(s)                               : 6 channels
Channel positions                        : Front: L C R, Side: L R, LFE
Sampling rate                            : 48.0 KHz
Bit depth                                : 16 bits
Compression mode                         : Lossy
Stream size                              : 354 MiB (8%)
Title                                    : DVO  (DVD-Group)
Language                                 : Russian
Default                                  : No
Forced                                   : No

Audio #3
ID                                       : 4
Format                                   : AC-3
Format/Info                              : Audio Coding 3
Mode extension                           : CM (complete main)
Format settings, Endianness              : Big
Codec ID                                 : A_AC3
Duration                                 : 2h 8mn
Bit rate mode                            : Constant
Bit rate                                 : 384 Kbps
Channel(s)                               : 6 channels
Channel positions                        : Front: L C R, Side: L R, LFE
Sampling rate                            : 48.0 KHz
Bit depth                                : 16 bits
Compression mode                         : Lossy
Stream size                              : 354 MiB (8%)
Title                                    : DVO (Liga HQ)
Language                                 : Russian
Default                                  : No
Forced                                   : No

Text #1
ID                                       : 5
Format                                   : UTF-8
Codec ID                                 : S_TEXT/UTF8
Codec ID/Info                            : UTF-8 Plain Text
Title                                    : v.1
Language                                 : Russian
Default                                  : No
Forced                                   : No

Text #2
ID                                       : 6
Format                                   : UTF-8
Codec ID                                 : S_TEXT/UTF8
Codec ID/Info                            : UTF-8 Plain Text
Title                                    : v.2
Language                                 : Russian
Default                                  : No
Forced                                   : No

Text #3
ID                                       : 7
Format                                   : UTF-8
Codec ID                                 : S_TEXT/UTF8
Codec ID/Info                            : UTF-8 Plain Text
Title                                    : full
Language                                 : English
Default                                  : No
Forced                                   : No

Menu
00:00:00.000                             : en:Opening titles
00:01:06.275                             : en:Birthday party
00:02:52.422                             : en:“Happy birthday, sir”
00:05:51.851                             : en:Profound life experience
00:09:27.734                             : en:Forty-eight
00:13:41.738                             : en:Consumer Recreation Services
00:17:54.365                             : en:“Confused . . . risky . . . bloody . . . whoops”
00:20:52.543                             : en:John 9:25
00:24:49.405                             : en:“This is your Game, and welcome to it”
00:30:47.846                             : en:Helping hand
00:34:00.538                             : en:“Don’t let her get away”
00:43:13.508                             : en:Czar Nicholas
00:51:09.984                             : en:Guy in the gray flannel suit
00:53:55.816                             : en:Hotel Nikko
00:59:11.339                             : en:Toyed with by depraved children
01:04:56.392                             : en:Nicholas Van Cocksucker
01:08:06.541                             : en:Human piñata
01:12:31.556                             : en:California Regal Sedans
01:15:57.803                             : en:Motive
01:18:55.397                             : en:Cable Repair Specialists
01:26:49.454                             : en:Blue 2/9690D
01:33:56.422                             : en:Entombed
01:37:29.927                             : en:“Can I have your attention, please?”
01:42:23.095                             : en:Trust Taggarene
01:45:14.016                             : en:“I love your work”
01:48:25.791                             : en:Pulling back the curtain
01:52:38.293                             : en:“This is the Game”
01:59:28.119                             : en:Cordially invited
02:03:44.250                             : en:End credits

-----------------------------------------------------
x264 [info]: frame I:1538 Avg QP:16.14 size: 90481
x264 [info]: frame P:37360 Avg QP:18.25 size: 34566
x264 [info]: frame B:146395 Avg QP:20.12 size: 14228
x264 [info]: consecutive B-frames: 1.9% 1.7% 7.2% 10.1% 14.8% 54.5% 5.1% 1.1% 1.1% 1.8% 0.7%
   
Торрент: Зарегистрирован [12 мар 2015, 17:39] Скачать торрент
Скачать торрент
О MediaGet
[ Размер 22.33 КБ / Просмотров 50 ]

Статус:
 
Приватный: Нет (DHT включён)
Размер: 4.37 ГБ (4 691 547 346 байт)
   
Хочешь стать частью команды MZ-Tracker?
Запишись
ТУТ
Аватара пользователя

Убийца клавиатуры
Убийца клавиатуры
 
Раздал: 12.57 ГБ
Скачал: 907.51 ГБ
Ратио: 0.017
Сообщения: 4358
Фото: 292
Зарегистрирован: 19 июн 2008, 23:00

  • Похожие торренты
    Ответы
    Просмотры
    Последнее сообщение

Вернуться в Зарубежные фильмы (Rip's)

Кто сейчас на конференции

Зарегистрированные пользователи: нет зарегистрированных пользователей

Ресурс не предоставляет электронные версии произведений, а занимается лишь коллекционированием и каталогизацией ссылок, присылаемых и публикуемых на форуме нашими читателями. Если вы являетесь правообладателем какого-либо представленного материала и не желаете чтобы ссылка на него находилась в нашем каталоге, свяжитесь с нами и мы незамедлительно удалим её. Файлы для обмена на трекере предоставлены пользователями сайта, и администрация не несёт ответственности за их содержание. Просьба не заливать файлы, защищенные авторскими правами, а также файлы нелегального содержания!
cron