Мирный воин / Peaceful Warrior (Виктор Сальва / Victor Salva) [2006, США, Германия, драма, мелодрама, спорт, биография, WEB-DLRip] 2xMVO + Original скачать торрент

Мировая классика кино, Rip, Рипы, Зарубежные фильмы

Модератор: Модераторы видео

  • Статистика раздачи
Размер: 1.95 ГБ   |  Зарегистрирован: 25 фев 2015, 21:43   |   .torrent скачан: 22 раз
Сидеров: 81  [ 0 байт/сек ]     Личеров: 6  [ 0 байт/сек ]  
Список файлов : Кто скачал : Раздают : Скачивают : Кто благодарил : История : Не раздающие : Запрашивали сидеров : Внешние трекеры 
  

Мирный воин / Peaceful Warrior (Виктор Сальва / Victor Salva) [2006, США, Германия, драма, мелодрама, спорт, биография, WEB-DLRip] 2xMVO + Original

Сообщение Боцман » 25 фев 2015, 21:43

Мирный воин / Peaceful warrior

Страна: Германия, США
Год выпуска: 2006
Жанр: драма, мелодрама, спорт, биография
Продолжительность: 02:00:45
Перевод #1: Профессиональный (многоголосый закадровый) ТВ3
Перевод #2: Профессиональный (многоголосый закадровый) VSTeam Creative Group
Оригинальная аудиодорожка: английский

Режиссер: Виктор Сальва / Victor Salva

В ролях: Скотт Мехловиц, Ник Нолти, Эми Смарт, Тим ДиКей, Эштон Холмс, Пол Уэсли, Б.Дж. Бритт, Агнес Брукнер, Том Тарантини, Беатрис Розен

Описание: Дэна Миллмэна, студента колледжа и чемпиона мира по гимнастике, несмотря на успех, преследует чувство, что в его жизни чего-то не хватает. Проснувшись однажды от кошмара, он идет на ночную автозаправочную станцию, встречает старика, которого называет Сократом, и его мир изменяется навсегда. Начинается невероятное обучение у этого эксцентричного старого Воина. Дэн начинает духовную Одиссею в царство света и тени, романтики и тайны, на пути к последнему противостоянию, которое его освободит или уничтожит.
Эта ставшая классической история, рассказанная с теплотой и юмором, обращена к мирному воину внутри каждого из нас. Совершите путешествие вместе с Дэном по пути мирного воина к безграничному счастью...

Качество: WEB-DLRip
Формат: AVI

Видео: 720x304 (2.37:1), 23.976 fps, XviD build 73 ~1529 kbps avg, 0.29 bit/pixel
Аудио #1: 48 kHz, AC3 Dolby Digital, 2/0 (L,R) ch, ~192 kbps | MVO / ТВ3
Аудио #2: 48 kHz, AC3 Dolby Digital, 2/0 (L,R) ch, ~192 kbps | MVO / VSTeam Creative Group (отдельно)
Аудио #3: 48 kHz, AC3 Dolby Digital, 3/2 (L,C,R,l,r) + LFE ch, ~384 kbps | Original (отдельно)
Раздача от:
Код:
Код: Выделить всё
D:\Мои рипы\Peaceful.Warrior.2006.web-dlrip.dexter_lex\Peaceful.Warrior.2006.web-dlrip.dexter_lex.avi
  General
    Complete name : D:\Мои рипы\Peaceful.Warrior.2006.web-dlrip.dexter_lex\Peaceful.Warrior.2006.web-dlrip.dexter_lex.avi
    Format : AVI
    Format/Info : Audio Video Interleave
    File size : 1.46 GiB
    Duration : 2h 0mn
    Overall bit rate : 1 731 Kbps
    Writing application : VirtualDubMod 1.5.10.3 | www.virtualdub-fr.org || (build 2550/release)
    Writing library : VirtualDubMod build 2550/release
  Video #0
    ID : 0
    Format : MPEG-4 Visual
    Format profile : Advanced Simple@L5
    Format settings, BVOP : 1
    Format settings, QPel : No
    Format settings, GMC : No warppoints
    Format settings, Matrix : Custom
    Codec ID : XVID
    Codec ID/Hint : XviD
    Duration : 2h 0mn
    Bit rate : 1 529 Kbps
    Width : 720 pixels
    Height : 304 pixels
    Display aspect ratio : 2.35:1
    Frame rate : 23.976 fps
    Color space : YUV
    Chroma subsampling : 4:2:0
    Bit depth : 8 bits
    Scan type : Progressive
    Compression mode : Lossy
    Bits/(Pixel*Frame) : 0.291
    Stream size : 1.29 GiB (88%)
    Writing library : XviD 73
  Audio #1
    ID : 1
    Format : AC-3
    Format/Info : Audio Coding 3
    Mode extension : CM (complete main)
    Codec ID : 2000
    Duration : 2h 0mn
    Bit rate mode : Constant
    Bit rate : 192 Kbps
    Channel(s) : 2 channels
    Channel positions : Front: L R
    Sampling rate : 48.0 KHz
    Bit depth : 16 bits
    Compression mode : Lossy
    Stream size : 166 MiB (11%)
    Alignment : Split accross interleaves
    Interleave, duration : 42 ms (1.00 video frame)
    Interleave, preload duration : 500 ms
   
Торрент: Зарегистрирован [25 фев 2015, 21:43] Скачать торрент
Скачать торрент
О MediaGet
[ Размер 20.2 КБ / Просмотров 56 ]

Статус:
 
Приватный: Нет (DHT включён)
Размер: 1.95 ГБ (2 089 178 368 байт)
   
Хочешь стать частью команды MZ-Tracker?
Запишись
ТУТ
Аватара пользователя

Убийца клавиатуры
Убийца клавиатуры
 
Раздал: 12.57 ГБ
Скачал: 907.51 ГБ
Ратио: 0.017
Сообщения: 4358
Фото: 292
Зарегистрирован: 19 июн 2008, 23:00

Вернуться в Зарубежные фильмы (Rip's)

Кто сейчас на конференции

Зарегистрированные пользователи: bigcatwar

Ресурс не предоставляет электронные версии произведений, а занимается лишь коллекционированием и каталогизацией ссылок, присылаемых и публикуемых на форуме нашими читателями. Если вы являетесь правообладателем какого-либо представленного материала и не желаете чтобы ссылка на него находилась в нашем каталоге, свяжитесь с нами и мы незамедлительно удалим её. Файлы для обмена на трекере предоставлены пользователями сайта, и администрация не несёт ответственности за их содержание. Просьба не заливать файлы, защищенные авторскими правами, а также файлы нелегального содержания!
cron