Остров Головорезов / Cutthroat Island (Ренни Харлин / Renny Harlin) [1995, США, Франция, Италия, Германия, боевик, мелодрама, приключения, комедия, семейный, BDRip] MVO (СТС) + MVO (ТВ3) скачать торрент

Мировая классика кино, Rip, Рипы, Зарубежные фильмы

Модератор: Модераторы видео

  • Статистика раздачи
Размер: 1.42 ГБ   |  Зарегистрирован: 22 фев 2015, 00:37   |   .torrent скачан: 2 раз
Сидеров: 0  [ 0 байт/сек ]     Личеров: 0  [ 0 байт/сек ]  
Список файлов : Кто скачал : Раздают : Скачивают : Кто благодарил : История : Не раздающие : Запрашивали сидеров : Внешние трекеры 
  

Остров Головорезов / Cutthroat Island (Ренни Харлин / Renny Harlin) [1995, США, Франция, Италия, Германия, боевик, мелодрама, приключения, комедия, семейный, BDRip] MVO (СТС) + MVO (ТВ3)

Сообщение Фаромир брат » 22 фев 2015, 00:37

Остров Головорезов / Cutthroat Island


Год выпуска: 1995
Страна: США, Франция, Италия, Германия
Жанр: боевик, мелодрама, приключения, Комедия, семейный

Продолжительность: 02:04:32
Перевод: Профессиональный (многоголосый закадровый) - СТС
Перевод 2: Профессиональный (многоголосый закадровый) - ТВ3
Cубтитры: нет

Режиссер: Ренни Харлин / Renny Harlin

В ролях: Джина Дэвис (Morgan Adams), Мэттью Модайн (William Shaw), Фрэнк Ланджелла (Dawg Brown), Мори Чайкин (John Reed), Патрик Мэлахайд (Govenor Ainslee), Стэн Шоу (Glasspoole), Рекс Линн (Mr. Blair), Пол Диллон (Snelgrave, Reaper's 1st Mate), Кристофер Мастерсон (Bowen), Джимми Ф. Скэггз (Tom Scully)
Мировая премьера: 22 декабря 1995
Описание: Отважная дочь пирата Морган Эдамс жаждет отомстить за своего отца, погибшего от рук собственного брата. Ей досталась в наследство треть карты Острова Головорезов с обозначением места, где спрятаны несметные сокровища. Чтобы добраться до них, Морган набирает команду из старых боевых товарищей отца. На аукционе рабов в Порт-Ройяле на Ямайке она покупает авантюриста и проходимца Уильяма Шоу, у которого оказывается вторая часть карты. Но главная проблема в том, что последняя часть карты находится у злого и коварного дяди Морган — пирата по прозвищу «Дог»…




Качество видео: BDRip
Формат видео: AVI
Видео: XviD, 720x304 (2,35:1), 23.976 fps, 1235 kbps avg
Аудио:
1 - 48 khz, AC3 Dolby Digital, 2/0 (L,R) ch, ~192 kbps [СТС] IPTVRip
2 - 48 khz, AC3 Dolby Digital, 2/0 (L,R) ch, ~192 kbps [ТВ3] IPTVRip
Общее
Полное имя : E:\Альберт\Downloads\Остров Головорезов СТС + ТВ3.avi
Формат : AVI
Формат/Информация : Audio Video Interleave
Размер файла : 1,42 Гбайт
Продолжительность : 2 ч. 4 м.
Общий поток : 1633 Кбит/сек
Название фильма : Ostrov_Golovorezov_1995_BDRip_Menen
Режиссёр : Menen
Программа кодирования : VirtualDubMod 1.5.10.2 (build 2540/release)
Библиотека кодирования : VirtualDubMod build 2540/release

Видео
Идентификатор : 0
Формат : MPEG-4 Visual
Профиль формата : Advanced [email protected]
Параметр BVOP формата : 1
Параметр QPel формата : Нет
Параметр GMC формата : Без точки перехода
Параметр матрицы формата : Выборочная
Идентификатор кодека : XVID
Идентификатор кодека/Подсказка : XviD
Продолжительность : 2 ч. 4 м.
Битрейт : 1235 Кбит/сек
Ширина : 720 пикселей
Высота : 304 пикселя
Соотношение сторон : 2,35:1
Частота кадров : 23,976 кадра/сек
Цветовое пространство : YUV
Субдискретизация насыщенности : 4:2:0
Битовая глубина : 8 бит
Тип развёртки : Прогрессивная
Метод сжатия : С потерями
Бит/(Пиксели*Кадры) : 0.235
Размер потока : 1,07 Гбайт (76%)
Библиотека кодирования : XviD 65

Аудио #1
Идентификатор : 1
Формат : AC-3
Формат/Информация : Audio Coding 3
Расширение режима : CM (complete main)
Параметр Endianness формата : Big
Идентификатор кодека : 2000
Продолжительность : 2 ч. 4 м.
Вид битрейта : Постоянный
Битрейт : 192 Кбит/сек
Каналы : 2 канала
Расположение каналов : Front: L R
Частота : 48,0 КГц
Битовая глубина : 16 бит
Метод сжатия : С потерями
Размер потока : 171 Мбайт (12%)
Выравнивание : Разделение по промежуткам
Продолжительность промежутка : 42 мс. (1,00 видеокадр)
Время предзагрузки промежутка : 500 мс.

Аудио #2
Идентификатор : 2
Формат : AC-3
Формат/Информация : Audio Coding 3
Расширение режима : CM (complete main)
Параметр Endianness формата : Big
Идентификатор кодека : 2000
Продолжительность : 2 ч. 4 м.
Вид битрейта : Постоянный
Битрейт : 192 Кбит/сек
Каналы : 2 канала
Расположение каналов : Front: L R
Частота : 48,0 КГц
Битовая глубина : 16 бит
Метод сжатия : С потерями
Размер потока : 171 Мбайт (12%)
Выравнивание : Разделение по промежуткам
Продолжительность промежутка : 42 мс. (1,00 видеокадр)
Время предзагрузки промежутка : 500 мс.
   
Торрент: Зарегистрирован [22 фев 2015, 00:37] Скачать торрент
Скачать торрент
О MediaGet
[ Размер 14.83 КБ / Просмотров 37 ]

Статус:
 
Приватный: Нет (DHT включён)
Размер: 1.42 ГБ (1 525 254 144 байт)
   
Аватара пользователя

Сид-сен-сей
Сид-сен-сей
 
Раздал: 24.31 ТБ
Скачал: 1.72 ТБ
Ратио: 20.885
Сообщения: 7897
Фото: 125
Зарегистрирован: 26 ноя 2012, 17:20
Medals: 2
1000 раздач! (1) Меценат №2 (1)

  • Похожие торренты
    Ответы
    Просмотры
    Последнее сообщение

Вернуться в Зарубежные фильмы (Rip's)

Кто сейчас на конференции

Зарегистрированные пользователи: нет зарегистрированных пользователей

Ресурс не предоставляет электронные версии произведений, а занимается лишь коллекционированием и каталогизацией ссылок, присылаемых и публикуемых на форуме нашими читателями. Если вы являетесь правообладателем какого-либо представленного материала и не желаете чтобы ссылка на него находилась в нашем каталоге, свяжитесь с нами и мы незамедлительно удалим её. Файлы для обмена на трекере предоставлены пользователями сайта, и администрация не несёт ответственности за их содержание. Просьба не заливать файлы, защищенные авторскими правами, а также файлы нелегального содержания!
cron