Нападение на остров дьявола / Теневые воины / Assault on Devil's Island / Shadow Warriors (Джон Кассар / Jon Cassar) [1997 г., боевик, приключения, триллер, DVDRip] MVO (Екатеринбург Арт) скачать торрент

Мировая классика кино, Rip, Рипы, Зарубежные фильмы

Модератор: Модераторы видео

  • Статистика раздачи
Размер: 1.36 ГБ   |  Зарегистрирован: 14 фев 2015, 16:42   |   .torrent скачан: 20 раз
Сидеров: 2  [ 0 байт/сек ]     Личеров: 0  [ 0 байт/сек ]  
Список файлов : Кто скачал : Раздают : Скачивают : Кто благодарил : История : Не раздающие : Запрашивали сидеров : Внешние трекеры 
  

Нападение на остров дьявола / Теневые воины / Assault on Devil's Island / Shadow Warriors (Джон Кассар / Jon Cassar) [1997 г., боевик, приключения, триллер, DVDRip] MVO (Екатеринбург Арт)

Сообщение Фаромир брат » 14 фев 2015, 16:42

Нападение на остров дьявола / Теневые воины / Assault on Devil's Island / Shadow Warriors


Год выпуска: 1997
Страна: США
Жанр: боевик, приключения, триллер
Продолжительность: 01:30:26
Перевод: Профессиональный (многоголосый, закадровый) Екатеринбург Арт
Режиссер: Джон Кассар / Jon Cassar
В ролях: Билли Блэнкс, Халк Хоган, Карл Уэзерс, Шэннон Твид, Мартин Коув, Тревор Годдард, Кристофер Дуглас, Майк Уайт, Билли Драго...

Описание: Перед легендарным командиром «морских котиков» — самого элитного спецназа США, и выдающимся мастером боевых искусств Майком МакБрайдом поставлена невероятно трудная и ответственная задача.
Он должен провести операцию по освобождению с затерянного в океане острова Дьявола женской олимпийской сборной США по гимнастике, захваченной в заложники южноамериканским наркокартелем в отместку за арест своего босса.
Это означает, что МакБрайд, его друг Лерой и неотразимый секретный агент Бюро по борьбе с наркотиками Эшли будут сражаться с акулами-убийцами, взбираться на острые скалы и, проявляя незаурядное мужество и постоянно рискуя жизнью, преодолевать множество поджидающих их опасностей. Но никто и ничто не может остановить команду МакБрайда.

Автор релиза:

Качество видео: DVDRip
Формат файла: AVI
Видео: 640x480, 25.000 fps, MPEG-4 Visual, 2022 kbps
Аудио: 48 kHz, MP3, 2 ch, 128 kbps [Екатеринбург Арт]
General
Format : AVI
Format/Info : Audio Video Interleave
File size : 1.36 GiB
Duration : 1h 30mn
Overall bit rate : 2 159 Kbps
Writing application : VirtualDubMod 1.5.10.3 (build 2550/release)
Writing library : VirtualDubMod build 2550/release

Video
ID : 0
Format : MPEG-4 Visual
Format profile : Advanced [email protected]
Format settings, BVOP : 2
Format settings, QPel : Yes
Format settings, GMC : No warppoints
Format settings, Matrix : Default (MPEG)
Codec ID : XVID
Codec ID/Hint : XviD
Duration : 1h 30mn
Bit rate : 2 022 Kbps
Width : 640 pixels
Height : 480 pixels
Display aspect ratio : 4:3
Frame rate : 25.000 fps
Color space : YUV
Chroma subsampling : 4:2:0
Bit depth : 8 bits
Scan type : Progressive
Compression mode : Lossy
Bits/(Pixel*Frame) : 0.263
Stream size : 1.28 GiB (94%)
Writing library : XviD 1.2.1 (UTC 2008-12-04)

Audio
ID : 1
Format : MPEG Audio
Format version : Version 1
Format profile : Layer 3
Mode : Joint stereo
Codec ID : 55
Codec ID/Hint : MP3
Duration : 1h 30mn
Bit rate mode : Constant
Bit rate : 128 Kbps
Channel(s) : 2 channels
Sampling rate : 48.0 KHz
Compression mode : Lossy
Stream size : 82.8 MiB (6%)
Alignment : Aligned on interleaves
Interleave, duration : 40 ms (1.00 video frame)
Interleave, preload duration : 504 ms
   
Торрент: Зарегистрирован [14 фев 2015, 16:42] Скачать торрент
Скачать торрент
О MediaGet
[ Размер 14.27 КБ / Просмотров 49 ]

Статус:
 
Приватный: Нет (DHT включён)
Размер: 1.36 ГБ (1 464 768 512 байт)
   
Аватара пользователя

Сид-сен-сей
Сид-сен-сей
 
Раздал: 24.31 ТБ
Скачал: 1.72 ТБ
Ратио: 20.885
Сообщения: 7897
Фото: 125
Зарегистрирован: 26 ноя 2012, 17:20
Medals: 2
1000 раздач! (1) Меценат №2 (1)

  • Похожие торренты
    Ответы
    Просмотры
    Последнее сообщение

Вернуться в Зарубежные фильмы (Rip's)

Кто сейчас на конференции

Зарегистрированные пользователи: нет зарегистрированных пользователей

Ресурс не предоставляет электронные версии произведений, а занимается лишь коллекционированием и каталогизацией ссылок, присылаемых и публикуемых на форуме нашими читателями. Если вы являетесь правообладателем какого-либо представленного материала и не желаете чтобы ссылка на него находилась в нашем каталоге, свяжитесь с нами и мы незамедлительно удалим её. Файлы для обмена на трекере предоставлены пользователями сайта, и администрация не несёт ответственности за их содержание. Просьба не заливать файлы, защищенные авторскими правами, а также файлы нелегального содержания!
cron