Боевик Джексон / Джексон по кличке "Мотор" / Action Jackson (Крэйг Р. Бэксли / Craig R. Baxley) [1988, США, боевик, триллер, комедия, криминал, BDRip] Dub скачать торрент

Мировая классика кино, Rip, Рипы, Зарубежные фильмы

Модератор: Модераторы видео

  • Статистика раздачи
Размер: 1.45 ГБ   |  Зарегистрирован: 14 фев 2015, 16:28   |   .torrent скачан: 4 раз
Сидеров: 0  [ 0 байт/сек ]     Личеров: 0  [ 0 байт/сек ]  
Список файлов : Кто скачал : Раздают : Скачивают : Кто благодарил : История : Не раздающие : Запрашивали сидеров : Внешние трекеры 
  

Боевик Джексон / Джексон по кличке "Мотор" / Action Jackson (Крэйг Р. Бэксли / Craig R. Baxley) [1988, США, боевик, триллер, комедия, криминал, BDRip] Dub

Сообщение Фаромир брат » 14 фев 2015, 16:28

боевик Джексон / Джексон по кличке "Мотор" / Action Jackson

Год выпуска: 1988
Выпущено: США
Жанр: боевик, триллер, Комедия, криминал
Продолжительность: 01:35:58
Перевод: Профессиональный (полное дублирование)
Субтитры: нет
Режиссер: Крэйг Р. Бэксли / Craig R. Baxley
В ролях: Карл Уэзерс, Крэйг Т. Нельсон, Вэнити, Шэрон Стоун, Томас Ф. Уилсон, Билл Дьюк, Роберт Дави, Джек Тибо, Роджер Аарон Браун, Стэн Фостер
О фильме: Сержант полиции Джексон, по прозвищу «боевик», бросает вызов жестоким убийцам, состоящим на службе у безжалостного автомагната, который рассчитывает путем убийств расчистить себе дорогу к политической власти.
Преследуемый своими же коллегами-полицейскими по сфабрикованному обвинению, Джексон предпринимает отчаянную попытку разоблачения…

Релиз:
Автор: yaroslaigor
Качество: BDRip (источник: / BD-Remux / 1080p)
Формат: AVI
Видео: 704x400 (1.76:1), 23.976 fps, XviD build 65 ~1964 kbps avg, 0.29 bit/pixel
Аудио: 48 kHz, AC3 Dolby Digital, 2/0 (L,R), ~192.00 kbps avg
Размер: 1487.01 Mb (1/3 DVD-R)

Формат : AVI
Формат/Информация : Audio Video Interleave
Размер файла : 1,45 Гбайт
Продолжительность : 1 ч. 35 м.
Общий поток : 2166 Кбит/сек
Название фильма : боевик Джексон / Джексон по кличке "Мотор" / Action Jackson (1988) BDRip
Режиссёр : yaroslaigor
Жанр : боевик, триллер, Комедия
Программа кодирования : VirtualDubMod 1.5.10.2 (build 2542/release)
Примечание : 18.12.2013

Видео
Идентификатор : 0
Формат : MPEG-4 Visual
Профиль формата : Advanced Simple@L5
Параметр BVOP формата : 1
Параметр QPel формата : Нет
Параметр GMC формата : Без точки перехода
Параметр матрицы формата : Выборочная
Идентификатор кодека : XVID
Идентификатор кодека/Подсказка : XviD
Продолжительность : 1 ч. 35 м.
Битрейт : 1965 Кбит/сек
Ширина : 704 пикселя
Высота : 400 пикселей
Соотношение сторон : 16:9
Частота кадров : 23,976 кадра/сек
Цветовое пространство : YUV
Субдискретизация насыщенности : 4:2:0
Битовая глубина : 8 бит
Тип развёртки : Прогрессивная
Метод сжатия : С потерями
Бит/(Пиксели*Кадры) : 0.291
Размер потока : 1,32 Гбайт (91%)
Библиотека кодирования : XviD 65

Аудио
Идентификатор : 1
Формат : AC-3
Формат/Информация : Audio Coding 3
Расширение режима : CM (complete main)
Параметр Endianness формата : Big
Идентификатор кодека : 2000
Продолжительность : 1 ч. 35 м.
Вид битрейта : Постоянный
Битрейт : 192 Кбит/сек
Каналы : 2 канала
Расположение каналов : Front: L R
Частота : 48,0 КГц
Битовая глубина : 16 бит
Метод сжатия : С потерями
Размер потока : 132 Мбайт (9%)
Выравнивание : Разделение по промежуткам
Продолжительность промежутка : 42 мс. (1,00 видеокадр)
Время предзагрузки промежутка : 500 мс.

   
Торрент: Зарегистрирован [14 фев 2015, 16:28] Скачать торрент
Скачать торрент
О MediaGet
[ Размер 15.14 КБ / Просмотров 38 ]

Статус:
 
Приватный: Нет (DHT включён)
Размер: 1.45 ГБ (1 559 238 656 байт)
   
Аватара пользователя

Сид-сен-сей
Сид-сен-сей
 
Раздал: 24.31 ТБ
Скачал: 1.72 ТБ
Ратио: 20.885
Сообщения: 7897
Фото: 125
Зарегистрирован: 26 ноя 2012, 17:20
Medals: 2
1000 раздач! (1) Меценат №2 (1)

Вернуться в Зарубежные фильмы (Rip's)

Кто сейчас на конференции

Зарегистрированные пользователи: bigcatwar

Ресурс не предоставляет электронные версии произведений, а занимается лишь коллекционированием и каталогизацией ссылок, присылаемых и публикуемых на форуме нашими читателями. Если вы являетесь правообладателем какого-либо представленного материала и не желаете чтобы ссылка на него находилась в нашем каталоге, свяжитесь с нами и мы незамедлительно удалим её. Файлы для обмена на трекере предоставлены пользователями сайта, и администрация не несёт ответственности за их содержание. Просьба не заливать файлы, защищенные авторскими правами, а также файлы нелегального содержания!
cron