Отряд 10 из Навароне / Force 10 from Navarone (Гай Хэмилтон / Guy Hamilton) [1978, Великобритания, США, Приключения, боевик, BDRip] AVO (Андрей Гаврилов) скачать торрент

Мировая классика кино, Rip, Рипы, Зарубежные фильмы

Модератор: Модераторы видео

  • Статистика раздачи
Размер: 1.47 ГБ   |  Зарегистрирован: 14 фев 2015, 16:25   |   .torrent скачан: 0 раз
Сидеров: 0  [ 0 байт/сек ]     Личеров: 0  [ 0 байт/сек ]  
Список файлов : Кто скачал : Раздают : Скачивают : Кто благодарил : История : Не раздающие : Запрашивали сидеров : Внешние трекеры 
  

Отряд 10 из Навароне / Force 10 from Navarone (Гай Хэмилтон / Guy Hamilton) [1978, Великобритания, США, Приключения, боевик, BDRip] AVO (Андрей Гаврилов)

Сообщение Фаромир брат » 14 фев 2015, 16:25

Отряд 10 из Навароне / Force 10 from Navarone

Страна: Великобритания, США
Жанр: Приключения, боевик
Год выпуска: 1978
Продолжительность: 02:05:51
Перевод: Авторский (одноголосый закадровый) Андрей Гаврилов
Cубтитры: нет
Режиссер: Гай Хэмилтон / Guy Hamilton
В ролях: Роберт Шоу, Харрисон Форд, Барбара Бах, Эдвард Фокс, Франко Неро, Карл Уэзерс, Ричард Кил, Алан Бэдел, Майкл Бирн, Филип Лэтэм

Описание: Два главных героя — Клифф Мэллори, ставший майором — и его друг-взрывник Миллер выбрасываются с самолета в Югославии, где им предстоит в сотрудничестве с десантным отрядом полковника Барнсби и местными партизанами взорвать крайне важный для немцев мост. Но им противостоит предатель Лесковар…

Качество видео: BDRip [BDRemux 1080p]
Формат видео: AVI
Видео: XviD build 50, 720x304 (2.37:1), 23.976 fps, 1465 kbps avg, 0.28 bit/pixel
Аудио: AC3 Dolby Digital, 48000Hz, 2/0 (L,R) ch, 192.00 kbps avg
Отряд 10 из Навароне - Force 10 from Navarone [by ale_x2008].avi
Format : AVI
Format/Info : Audio Video Interleave
File size : 1.47 GiB
Duration : 2h 5mn
Overall bit rate : 1 667 Kbps
Movie name : Отряд 10 из Навароне - Force 10 from Navarone [by ale_x2008]
Director : by ale_x2008
Writing application : VirtualDubMod 1.5.10.3 (build 2550/release)
Copyright : Edich2
Comment : RuTracker.org

Video
ID : 0
Format : MPEG-4 Visual
Format profile : Advanced [email protected]
Format settings, BVOP : 1
Format settings, QPel : No
Format settings, GMC : No warppoints
Format settings, Matrix : Default (MPEG)
Codec ID : XVID
Codec ID/Hint : XviD
Duration : 2h 5mn
Bit rate : 1 466 Kbps
Width : 720 pixels
Height : 304 pixels
Display aspect ratio : 2.35:1
Frame rate : 23.976 fps
Color space : YUV
Chroma subsampling : 4:2:0
Bit depth : 8 bits
Scan type : Progressive
Compression mode : Lossy
Bits/(Pixel*Frame) : 0.279
Stream size : 1.29 GiB (88%)
Writing library : XviD 1.2.1 (UTC 2008-12-04)

Audio
ID : 1
Format : AC-3
Format/Info : Audio Coding 3
Mode extension : CM (complete main)
Format settings, Endianness : Big
Codec ID : 2000
Duration : 2h 5mn
Bit rate mode : Constant
Bit rate : 192 Kbps
Channel(s) : 2 channels
Channel positions : Front: L R
Sampling rate : 48.0 KHz
Bit depth : 16 bits
Compression mode : Lossy
Stream size : 173 MiB (12%)
Alignment : Split accross interleaves
Interleave, duration : 42 ms (1.00 video frame)
Interleave, preload duration : 500 ms


   
Торрент: Зарегистрирован [14 фев 2015, 16:25] Скачать торрент
Скачать торрент
О MediaGet
[ Размер 15.2 КБ / Просмотров 31 ]

Статус:
 
Приватный: Нет (DHT включён)
Размер: 1.47 ГБ (1 573 617 664 байт)
   
Аватара пользователя

Сид-сен-сей
Сид-сен-сей
 
Раздал: 24.31 ТБ
Скачал: 1.72 ТБ
Ратио: 20.885
Сообщения: 7897
Фото: 125
Зарегистрирован: 26 ноя 2012, 17:20
Medals: 2
1000 раздач! (1) Меценат №2 (1)

Вернуться в Зарубежные фильмы (Rip's)

Кто сейчас на конференции

Зарегистрированные пользователи: нет зарегистрированных пользователей

Ресурс не предоставляет электронные версии произведений, а занимается лишь коллекционированием и каталогизацией ссылок, присылаемых и публикуемых на форуме нашими читателями. Если вы являетесь правообладателем какого-либо представленного материала и не желаете чтобы ссылка на него находилась в нашем каталоге, свяжитесь с нами и мы незамедлительно удалим её. Файлы для обмена на трекере предоставлены пользователями сайта, и администрация не несёт ответственности за их содержание. Просьба не заливать файлы, защищенные авторскими правами, а также файлы нелегального содержания!
cron