Смертельная охота / Death Hunt (Питер Р. Хант / Peter R. Hunt) [1981, США, Гонконг, приключения, BDRip] MVO (Первый канал) скачать торрент

Мировая классика кино, Rip, Рипы, Зарубежные фильмы

Модератор: Модераторы видео

  • Статистика раздачи
Размер: 1.47 ГБ   |  Зарегистрирован: 14 фев 2015, 16:22   |   .torrent скачан: 5 раз
Сидеров: 0  [ 0 байт/сек ]     Личеров: 0  [ 0 байт/сек ]  
Список файлов : Кто скачал : Раздают : Скачивают : Кто благодарил : История : Не раздающие : Запрашивали сидеров : Внешние трекеры 
  

Смертельная охота / Death Hunt (Питер Р. Хант / Peter R. Hunt) [1981, США, Гонконг, приключения, BDRip] MVO (Первый канал)

Сообщение Фаромир брат » 14 фев 2015, 16:22

Смертельная охота
Death Hunt


Страна: США, Гонконг
Жанр: приключения
Год выпуска: 1981
Продолжительность: 01:37:01
Перевод: Профессиональный (многоголосый закадровый) Первый канал
Cубтитры: нет
Оригинальная аудиодорожка: нет
Режиссер: Питер Р. Хант / Peter R. Hunt

В ролях: Чарльз Бронсон, Ли Марвин, Эндрю Стивенс, Карл Уэзерс, Эд Лотер, Мори Чайкин, Уильям Сэндерсон, Аугуст Шелленберг, Энджи Дикинсон
Описание: Зима 1932 года. Охотник Альберт Джонсон становится свидетелем собачьих боев. Он избивает хозяина и выкупает у него полумёртвого пса. Обиженный владелец собаки собирает товарищей, чтобы отомстить, но в перестрелке Джонсон убивает одного из них. После этого в дело вынужден вступить местный сержант полиции — он возглавляет толпу желающих наказать убийцу. В бою с ними Джонсон убивает нескольких нападающих, и уходит в горы. И на него начинается охота ...
Доп. информация: Перевод записан мною с цифрового эфира Первого канала
Отличия от прежней озвучки:
Перетянут из PAL в NTSC без сохранения тона
Начальные титры озвучены
Бранные слова на английском вставлены на место
(в прежней дорожке, в моментах ругательств, мы слышим тишину)
Формат видео: AVI
Видео: XVID, 720x384, 1,85:1, 23,976 кадра/сек, 1960 Кбит/сек
Аудио: AC-3, 48,0 КГц, 192 Кбит/сек, 2 канала (многоголосый Первый канал)
Общее
Полное имя : D:\с диска Е\инет\Раздачи\смертельная охота.1981.1канал\Смертельная охота.1981.1канал.avi
Формат : AVI
Формат/Информация : Audio Video Interleave
Продолжительность : 1 ч. 37 м.
Общий поток : 2162 Кбит/сек
Дата записи : 21.11.2014
Программа кодирования : VirtualDubModRus 1.5.10.2 (build 2542/release)
Библиотека кодирования : VirtualDubMod build 2542/release
Правообладатель : mister55555
Примечание : для rutracker.org

Видео
Идентификатор : 0
Формат : MPEG-4 Visual
Профиль формата : Advanced [email protected]
Параметр BVOP формата : 1
Параметр QPel формата : Нет
Параметр GMC формата : Без точки перехода
Параметр матрицы формата : Выборочная
Идентификатор кодека : XVID
Идентификатор кодека/Подсказка : XviD
Продолжительность : 1 ч. 37 м.
Битрейт : 1960 Кбит/сек
Ширина : 720 пикселей
Высота : 384 пикселя
Соотношение сторон : 1,85:1
Частота кадров : 23,976 кадра/сек
Цветовое пространство : YUV
Субдискретизация насыщенности : 4:2:0
Битовая глубина : 8 бит
Тип развёртки : Прогрессивная
Метод сжатия : С потерями
Бит/(Пиксели*Кадры) : 0.296
Размер потока : 1,33 Гбайт (91%)
Библиотека кодирования : XviD 73

Аудио
Идентификатор : 1
Формат : AC-3
Формат/Информация : Audio Coding 3
Расширение режима : CM (complete main)
Параметр Endianness формата : Big
Идентификатор кодека : 2000
Продолжительность : 1 ч. 37 м.
Вид битрейта : Постоянный
Битрейт : 192 Кбит/сек
Каналы : 2 канала
Расположение каналов : Front: L R
Частота : 48,0 КГц
Битовая глубина : 16 бит
Метод сжатия : С потерями
Размер потока : 133 Мбайт (9%)
Выравнивание : Разделение по промежуткам
Продолжительность промежутка : 42 мс. (1,00 видеокадр)
Время предзагрузки промежутка : 500 мс.
Заголовок : многоголосый Первый канал
   
Торрент: Зарегистрирован [14 фев 2015, 16:22] Скачать торрент
Скачать торрент
О MediaGet
[ Размер 15.28 КБ / Просмотров 42 ]

Статус:
 
Приватный: Нет (DHT включён)
Размер: 1.47 ГБ (1 573 117 952 байт)
   
Аватара пользователя

Сид-сен-сей
Сид-сен-сей
 
Раздал: 24.31 ТБ
Скачал: 1.72 ТБ
Ратио: 20.885
Сообщения: 7897
Фото: 125
Зарегистрирован: 26 ноя 2012, 17:20
Medals: 2
1000 раздач! (1) Меценат №2 (1)

Вернуться в Зарубежные фильмы (Rip's)

Кто сейчас на конференции

Зарегистрированные пользователи: нет зарегистрированных пользователей

Ресурс не предоставляет электронные версии произведений, а занимается лишь коллекционированием и каталогизацией ссылок, присылаемых и публикуемых на форуме нашими читателями. Если вы являетесь правообладателем какого-либо представленного материала и не желаете чтобы ссылка на него находилась в нашем каталоге, свяжитесь с нами и мы незамедлительно удалим её. Файлы для обмена на трекере предоставлены пользователями сайта, и администрация не несёт ответственности за их содержание. Просьба не заливать файлы, защищенные авторскими правами, а также файлы нелегального содержания!
cron