Смотрите гараж ракушка цена тут.

Взрыв мозга / Bitchkram (Андреас Эман / Andreas Ohman) [2012, Швеция, комедия, мелодрама, DVDRip] VO (PashaUp) скачать торрент

Мировая классика кино, Rip, Рипы, Зарубежные фильмы

Модератор: Модераторы видео

  • Статистика раздачи
Размер: 1.29 ГБ   |  Зарегистрирован: 04 фев 2015, 20:33   |   .torrent скачан: 2 раз
Сидеров: 0  [ 0 байт/сек ]     Личеров: 0  [ 0 байт/сек ]  
Список файлов : Кто скачал : Раздают : Скачивают : Кто благодарил : История : Не раздающие : Запрашивали сидеров : Внешние трекеры 
  

Взрыв мозга / Bitchkram (Андреас Эман / Andreas Ohman) [2012, Швеция, комедия, мелодрама, DVDRip] VO (PashaUp)

Сообщение Strelok77795 » 04 фев 2015, 20:33

Взрыв мозга / Bitchkram

Страна: Швеция
Жанр: Комедия, мелодрама

Год выпуска: 2012
Продолжительность: 01:37:04

Перевод: Одноголосый (закадровый) [PashaUP] по переводу [М. Васильев]
Оригинальная аудиодорожка: нет
Cубтитры: нет

Режиссер: Андреас Эман / Andreas Ohman

В ролях:Линда Молин, Фанни Кеттер, Матильда фон Эссен, Адам Лундгрен, Кристофер Берглунд

Описание: Кристин живет в маленьком городке и мечтает о большом приключении. В связи с окончанием школы родители дарят ей поездку в США, а Кристин от счастья создает блог, в котором собирается рассказать о своем путешествии. Но накануне отлета она отправляется на вечеринку, напивается и благополучно опаздывает на самолет.
Сгорая от стыда и не желая возвращаться домой, Кристин прячется у друзей и начинает строчить в блог рассказы о своем «открытии Америки». Хотя ее представления о США ограничиваются просмотром сериалов, читатели в восторге от ее отчетов. Блог Кристин начинает пользоваться сумасшедшей популярностью...



Качество: DVDRip
Контейнер: AVI
Видео: 720x304 (2.37:1), 25 fps, XviD build 50 ~1703 kbps avg, 0.31 bit/pixel
Аудио: 48 kHz, AC3 Dolby Digital, 2/0 (L,R) ch, ~192 kbps
Общее
Полное имя : C:\Users\Пользователь\Downloads\ВзрывМозга (2012).avi
Формат : AVI
Формат/Информация : Audio Video Interleave
Размер файла : 1,29 Гбайт
Продолжительность : 1 ч. 37 м.
Общий поток : 1905 Кбит/сек
Программа кодирования : VirtualDubMod 1.5.10.2 (build 2540/release)
Библиотека кодирования : VirtualDubMod build 2540/release

Видео
Идентификатор : 0
Формат : MPEG-4 Visual
Профиль формата : Advanced [email protected]
Параметр BVOP формата :2
Параметр QPel формата : Да
Параметр GMC формата : Без точки перехода
Параметр матрицы формата : Выборочная
Идентификатор кодека : XVID
Идентификатор кодека/Подсказка : XviD
Продолжительность : 1 ч. 37 м.
Битрейт : 1703 Кбит/сек
Ширина : 720 пикселей
Высота : 304 пикселя
Соотношение сторон : 2,35:1
Частота кадров : 25,000 кадров/сек
Цветовое пространство : YUV
Субдискретизация насыщенности : 4:2:0
Битовая глубина : 8 бит
Тип развёртки : Прогрессивная
Метод сжатия : С потерями
Бит/(Пиксели*Кадры) : 0.311
Размер потока : 1,16 Гбайт (89%)
Библиотека кодирования : XviD 1.2.1 (UTC 2008-12-04)

Аудио
Идентификатор : 1
Формат : AC-3
Формат/Информация : Audio Coding 3
Расширение режима : CM (complete main)
Параметр Endianness формата : Big
Идентификатор кодека : 2000
Продолжительность : 1 ч. 37 м.
Вид битрейта : Постоянный
Битрейт : 192 Кбит/сек
Каналы : 2 канала
Расположение каналов : Front: L R
Частота : 48,0 КГц
Битовая глубина : 16 бит
Метод сжатия : С потерями
Размер потока : 133 Мбайт (10%)
Выравнивание : Разделение по промежуткам
Продолжительность промежутка : 40 мс. (1,00 видеокадр)
Время предзагрузки промежутка : 500 мс.
   
Торрент: Зарегистрирован [04 фев 2015, 20:33] Скачать торрент
Скачать торрент
О MediaGet
[ Размер 13.52 КБ / Просмотров 32 ]

Статус:
 
Приватный: Нет (DHT включён)
Размер: 1.29 ГБ (1 387 139 072 байт)
   
Аватара пользователя

Модератор видео
Модератор видео
 
Раздал: 46.12 ТБ
Скачал: 39.63 ГБ
Ратио: 1223.484
Сообщения: 3491
Фото: 17
Зарегистрирован: 22 сен 2012, 23:13
Medals: 2
1000 раздач! (1) 1 место (1)

  • Похожие торренты
    Ответы
    Просмотры
    Последнее сообщение

Вернуться в Зарубежные фильмы (Rip's)

Кто сейчас на конференции

Зарегистрированные пользователи: нет зарегистрированных пользователей

Ресурс не предоставляет электронные версии произведений, а занимается лишь коллекционированием и каталогизацией ссылок, присылаемых и публикуемых на форуме нашими читателями. Если вы являетесь правообладателем какого-либо представленного материала и не желаете чтобы ссылка на него находилась в нашем каталоге, свяжитесь с нами и мы незамедлительно удалим её. Файлы для обмена на трекере предоставлены пользователями сайта, и администрация не несёт ответственности за их содержание. Просьба не заливать файлы, защищенные авторскими правами, а также файлы нелегального содержания!
cron