Великий уравнитель / The Equalizer (Антуан Фукуа / Antoine Fuqua) [2014, США, Боевик, триллер, криминал, BDRip] Dub скачать торрент

Мировая классика кино, Rip, Рипы, Зарубежные фильмы

Модератор: Модераторы видео

  • Статистика раздачи
Размер: 1.46 ГБ   |  Зарегистрирован: 04 фев 2015, 20:16   |   .torrent скачан: 10 раз
Сидеров: 0  [ 0 байт/сек ]     Личеров: 0  [ 0 байт/сек ]  
Список файлов : Кто скачал : Раздают : Скачивают : Кто благодарил : История : Не раздающие : Запрашивали сидеров : Внешние трекеры 
  

Великий уравнитель / The Equalizer (Антуан Фукуа / Antoine Fuqua) [2014, США, Боевик, триллер, криминал, BDRip] Dub

Сообщение Strelok77795 » 04 фев 2015, 20:16

Великий уравнитель / The Equalizer

Год выпуска: 2014
Выпущено: США / Columbia Pictures
Жанр: боевик, триллер, криминал
Продолжительность: 02:12:02
Перевод: Профессиональный (полное дублирование)
Cубтитры: нет
Режиссер:
Антуан Фукуа / Antoine Fuqua
В ролях:
Дензел Вашингтон (Robert McCall), Мартон Чокаш (Teddy), Хлоя Грейс Морец (Teri), Дэвид Харбор (Masters), Хейли Беннетт (Mandy), Билл Пуллман (Brian Plummer), Мелисса Лео (Susan Plummer), Дэвид Мюнье (Slavi), Джонни Скуртис (Ralphie), Алекс Видов (Tevi), Владимир Кулих (Vladimir Pushkin)
Описание:
Роберт МакКолл — бывший спецназовец. После увольнения со службы он собирается начать нормальную мирную жизнь, дав себе обещание больше никогда не брать в руки оружия. Но в один прекрасный момент он встречает молодую девушку, зарабатывающую на жизнь проституцией, которую на его глазах избивают бандиты и увозят в неизвестном направлении. Тогда он решает отыскать ее, после чего вступает в неравную схватку с русской мафией и продажными агентами ЦРУ. Ради справедливости он готов нарушить собственное обещание и применить оружие против людей, которые просто не заслуживают жить в этом мире…


IMDB | КиноПоиск | Сэмпл |
Качество: BDRip

Формат: AVI

Видео: 720x304 (2.37:1), 23.976 fps, XviD build 73 ~1379 kbps avg, 0.26 bit/pixel
Аудио: 48 kHz, AC3 Dolby Digital, 2/0 (L,R) ch, ~192.00 kbps avg

Код:
Код: Выделить всё
General
Complete name                            : D:\Velikiy_uravnitel`_2014_BDRip_iTunes_by_Dalemake.avi
Format                                   : AVI
Format/Info                              : Audio Video Interleave
File size                                : 1.46 GiB
Duration                                 : 2h 12mn
Overall bit rate                         : 1 581 Kbps
Writing application                      : VirtualDubMod 1.5.10.3 | www.virtualdub-fr.org || (build 2550/release)
Writing library                          : VirtualDubMod build 2550/release

Video
ID                                       : 0
Format                                   : MPEG-4 Visual
Format profile                           : Advanced [email protected]
Format settings, BVOP                    : 1
Format settings, QPel                    : No
Format settings, GMC                     : No warppoints
Format settings, Matrix                  : Custom
Codec ID                                 : XVID
Codec ID/Hint                            : XviD
Duration                                 : 2h 12mn
Bit rate                                 : 1 379 Kbps
Width                                    : 720 pixels
Height                                   : 304 pixels
Display aspect ratio                     : 2.35:1
Frame rate                               : 23.976 fps
Color space                              : YUV
Chroma subsampling                       : 4:2:0
Bit depth                                : 8 bits
Scan type                                : Progressive
Compression mode                         : Lossy
Bits/(Pixel*Frame)                       : 0.263
Stream size                              : 1.27 GiB (87%)
Writing library                          : XviD 73

Audio
ID                                       : 1
Format                                   : AC-3
Format/Info                              : Audio Coding 3
Mode extension                           : CM (complete main)
Format settings, Endianness              : Big
Codec ID                                 : 2000
Duration                                 : 2h 12mn
Bit rate mode                            : Constant
Bit rate                                 : 192 Kbps
Channel(s)                               : 2 channels
Channel positions                        : Front: L R
Sampling rate                            : 48.0 KHz
Bit depth                                : 16 bits
Compression mode                         : Lossy
Stream size                              : 181 MiB (12%)
Alignment                                : Split accross interleaves
Interleave, duration                     : 42 ms (1.00 video frame)
Interleave, preload duration             : 500 ms


   
Торрент: Зарегистрирован [04 фев 2015, 20:16] Скачать торрент
Скачать торрент
О MediaGet
[ Размер 15.09 КБ / Просмотров 54 ]

Статус:
 
Приватный: Нет (DHT включён)
Размер: 1.46 ГБ (1 565 337 600 байт)
   
Аватара пользователя

Модератор видео
Модератор видео
 
Раздал: 46.12 ТБ
Скачал: 39.63 ГБ
Ратио: 1223.484
Сообщения: 3493
Фото: 17
Зарегистрирован: 22 сен 2012, 23:13
Medals: 2
1000 раздач! (1) 1 место (1)

  • Похожие торренты
    Ответы
    Просмотры
    Последнее сообщение

Вернуться в Зарубежные фильмы (Rip's)

Кто сейчас на конференции

Зарегистрированные пользователи: нет зарегистрированных пользователей

Ресурс не предоставляет электронные версии произведений, а занимается лишь коллекционированием и каталогизацией ссылок, присылаемых и публикуемых на форуме нашими читателями. Если вы являетесь правообладателем какого-либо представленного материала и не желаете чтобы ссылка на него находилась в нашем каталоге, свяжитесь с нами и мы незамедлительно удалим её. Файлы для обмена на трекере предоставлены пользователями сайта, и администрация не несёт ответственности за их содержание. Просьба не заливать файлы, защищенные авторскими правами, а также файлы нелегального содержания!
cron