Стыд / Shame (Стив МакКуин / Steve McQueen) [2011, Великобритания, драма, BDRip-AVC] Dub + Original Eng + Sub Rus, Eng скачать торрент

Мировая классика кино, Rip, Рипы, Зарубежные фильмы

Модератор: Модераторы видео

  • Статистика раздачи
Размер: 2.18 ГБ   |  Зарегистрирован: 04 фев 2015, 19:57   |   .torrent скачан: 8 раз
Сидеров: 1  [ 0 байт/сек ]     Личеров: 0  [ 0 байт/сек ]  
Список файлов : Кто скачал : Раздают : Скачивают : Кто благодарил : История : Не раздающие : Запрашивали сидеров : Внешние трекеры 
  

Стыд / Shame (Стив МакКуин / Steve McQueen) [2011, Великобритания, драма, BDRip-AVC] Dub + Original Eng + Sub Rus, Eng

Сообщение Strelok77795 » 04 фев 2015, 19:57

Стыд / Shame

Страна: Великобритания
Жанр: драма
Год выпуска: 2011
Продолжительность: 01:41:08
Перевод: Профессиональный (дублированный)
Cубтитры: русские, английские
Оригинальная аудиодорожка: английский
Режиссер: Стив МакКуин / Steve McQueen

В ролях: Майкл Фассбендер, Кэри Маллиган, Джеймс Бэдж Дэйл, Николь Бихэйр, Алекс Манетт, Люсиль Уолтерс, Мари-Анхе Рамирес, Ханна Уэр, Элизабет Масуччи, Рэйчел Фаррар.

Описание: Главный герой картины, по имени Брэндон, — ухоженный, элегантный и успешный сотрудник нью-йоркского рекламного агентства, у которого есть лишь одна неутолимая страсть. Эротоман Брэндон одержим сексом во всех его проявлениях: он — завсегдатай порно-сайтов, пип-шоу и, при этом — удивительно успешный соблазнитель, перед сексуальным обаянием которого не в состоянии устоять не одна прекрасная девушка. Где же скрывается изъян в этом исключительном представителе сильного пола?! Внутренний мир Брэндона детонирует после того, как в роскошных холостяцких апартаментах неутомимого сексоголика неожиданно поселяется его родная сестра Сисси.
Рип fanatus
Качество видео: BDRip-AVC (Styd.2011.Blu-Ray.1080p.BLUEBIRD)
Формат видео: MKV | Sample
Видео: 1024x434 (2.35:1), 23,976 fps, x264@L4.1 ~2194 kbps avg, 0.21 bit/pixel
Аудио 1: 48 kHz, AC3 Dolby Digital, 3/2 (L,C,R,l,r) + LFE ch, ~448.00 kbps avg | RUS
Аудио 2: 48 kHz, AC3 Dolby Digital, 3/2 (L,C,R,l,r) + LFE ch, ~448.00 kbps avg | ENG
Общее
Формат : Matroska
Версия формата : Version 2
Размер файла : 2,18 Гбайт
Продолжительность : 1 ч. 41 м.
Общий поток : 3092 Кбит/сек
Название фильма : Shame (2011) - fanatus
Дата кодирования : UTC 2012-05-01 20:59:52
Программа кодирования : mkvmerge v3.4.0 ('Rapunzel') сборка от May 15 2010 09:38:20
Библиотека кодирования : libebml v0.8.0 + libmatroska v0.9.0

Видео
Идентификатор : 1
Формат : AVC
Формат/Информация : Advanced Video Codec
Профиль формата : High@L4.1
Параметр CABAC формата : Да
Параметр ReFrames формата : 10 кадров
Идентификатор кодека : V_MPEG4/ISO/AVC
Продолжительность : 1 ч. 41 м.
Битрейт : 2194 Кбит/сек
Ширина : 1024 пикселя
Высота : 434 пикселя
Соотношение сторон : 2,35:1
Режим частоты кадров : Постоянный
Частота кадров : 23,976 кадра/сек
Цветовое пространство : YUV
Субдискретизация насыщенности : 4:2:0
Битовая глубина : 8 бит
Тип развёртки : Прогрессивная
Бит/(Пиксели*Кадры) : 0.206
Размер потока : 1,51 Гбайт (69%)
Заголовок : Shame (2011)
Библиотека кодирования : x264 core 120 r2164 da19765
Настройки программы : cabac=1 / ref=10 / deblock=1:-3:-3 / analyse=0x3:0x133 / me=umh / subme=11 / psy=1 / psy_rd=1.00:0.10 / mixed_ref=1 / me_range=32 / chroma_me=1 / trellis=2 / 8x8dct=1 / cqm=0 / deadzone=21,11 / fast_pskip=0 / chroma_qp_offset=-3 / threads=16 / sliced_threads=0 / nr=0 / decimate=0 / interlaced=0 / bluray_compat=0 / constrained_intra=0 / bframes=11 / b_pyramid=2 / b_adapt=2 / b_bias=0 / direct=3 / weightb=1 / open_gop=0 / weightp=2 / keyint=240 / keyint_min=23 / scenecut=40 / intra_refresh=0 / rc_lookahead=60 / rc=2pass / mbtree=1 / bitrate=2194 / ratetol=1.0 / qcomp=0.60 / qpmin=0 / qpmax=69 / qpstep=4 / cplxblur=20.0 / qblur=0.5 / ip_ratio=1.40 / aq=2:0.90 / zones=138568,145486,q=44
Язык : English
Default : Да
Forced : Нет

Аудио #1
Идентификатор : 2
Формат : AC-3
Формат/Информация : Audio Coding 3
Расширение режима : CM (complete main)
Параметр Endianness формата : Big
Идентификатор кодека : A_AC3
Продолжительность : 1 ч. 41 м.
Вид битрейта : Постоянный
Битрейт : 448 Кбит/сек
Каналы : 6 каналов
Расположение каналов : Front: L C R, Side: L R, LFE
Частота : 48,0 КГц
Битовая глубина : 16 бит
Метод сжатия : С потерями
Размер потока : 324 Мбайт (14%)
Заголовок : Dub
Язык : Russian
Default : Да
Forced : Да

Аудио #2
Идентификатор : 3
Формат : AC-3
Формат/Информация : Audio Coding 3
Расширение режима : CM (complete main)
Параметр Endianness формата : Big
Идентификатор кодека : A_AC3
Продолжительность : 1 ч. 41 м.
Вид битрейта : Постоянный
Битрейт : 448 Кбит/сек
Каналы : 6 каналов
Расположение каналов : Front: L C R, Side: L R, LFE
Частота : 48,0 КГц
Битовая глубина : 16 бит
Метод сжатия : С потерями
Размер потока : 324 Мбайт (14%)
Заголовок : Original
Язык : English
Default : Нет
Forced : Нет

Текст #1
Идентификатор : 4
Формат : UTF-8
Идентификатор кодека : S_TEXT/UTF8
Идентификатор кодека/Информация : UTF-8 Plain Text
Заголовок : Serene
Язык : Russian
Default : Нет
Forced : Нет

Текст #2
Идентификатор : 5
Формат : UTF-8
Идентификатор кодека : S_TEXT/UTF8
Идентификатор кодека/Информация : UTF-8 Plain Text
Заголовок : ak79
Язык : Russian
Default : Нет
Forced : Нет

Текст #3
Идентификатор : 6
Формат : UTF-8
Идентификатор кодека : S_TEXT/UTF8
Идентификатор кодека/Информация : UTF-8 Plain Text
Язык : English
Default : Нет
Forced : Нет

Меню
00:00:00.000 : en:Chapter 01
00:09:10.216 : en:Chapter 03
00:11:11.420 : en:Chapter 05
00:12:51.020 : en:Chapter 07
00:18:38.534 : en:Chapter 09
00:22:56.083 : en:Chapter 11
00:24:57.704 : en:Chapter 13
00:26:25.792 : en:Chapter 15
00:28:57.193 : en:Chapter 17
00:34:04.083 : en:Chapter 19
00:37:18.152 : en:Chapter 21
00:42:53.487 : en:Chapter 23
00:46:00.132 : en:Chapter 25
00:53:37.297 : en:Chapter 27
00:56:35.225 : en:Chapter 29
01:00:27.957 : en:Chapter 31
01:08:03.829 : en:Chapter 33
01:09:49.560 : en:Chapter 35
01:16:04.977 : en:Chapter 37
01:22:47.587 : en:Chapter 39
01:26:36.232 : en:Chapter 41
01:31:31.277 : en:Chapter 43
01:34:37.296 : en:Chapter 45
01:36:23.778 : en:Chapter 47
01:41:07.853 : en:Chapter 48
   
Торрент: Зарегистрирован [04 фев 2015, 19:57] Скачать торрент
Скачать торрент
О MediaGet
[ Размер 11.41 КБ / Просмотров 46 ]

Статус:
 
Приватный: Нет (DHT включён)
Размер: 2.18 ГБ (2 345 335 417 байт)
   
Аватара пользователя

Модератор видео
Модератор видео
 
Раздал: 46.12 ТБ
Скачал: 39.63 ГБ
Ратио: 1223.484
Сообщения: 3493
Фото: 17
Зарегистрирован: 22 сен 2012, 23:13
Medals: 2
1000 раздач! (1) 1 место (1)

  • Похожие торренты
    Ответы
    Просмотры
    Последнее сообщение

Вернуться в Зарубежные фильмы (Rip's)

Кто сейчас на конференции

Зарегистрированные пользователи: bigcatwar

Ресурс не предоставляет электронные версии произведений, а занимается лишь коллекционированием и каталогизацией ссылок, присылаемых и публикуемых на форуме нашими читателями. Если вы являетесь правообладателем какого-либо представленного материала и не желаете чтобы ссылка на него находилась в нашем каталоге, свяжитесь с нами и мы незамедлительно удалим её. Файлы для обмена на трекере предоставлены пользователями сайта, и администрация не несёт ответственности за их содержание. Просьба не заливать файлы, защищенные авторскими правами, а также файлы нелегального содержания!
cron