Стрингер / Nightcrawler (Дэн Гилрой / Dan Gilroy) [2014, США, триллер, драма, криминал, WEB-DLRip] DVO (Пиратская студия) скачать торрент

Мировая классика кино, Rip, Рипы, Зарубежные фильмы

Модератор: Модераторы видео

  • Статистика раздачи
Размер: 751.23 МБ   |  Зарегистрирован: 01 фев 2015, 02:22   |   .torrent скачан: 0 раз
Сидеров: 1  [ 0 байт/сек ]     Личеров: 1  [ 0 байт/сек ]  
Список файлов : Кто скачал : Раздают : Скачивают : Кто благодарил : История : Не раздающие : Запрашивали сидеров : Внешние трекеры 
  

Стрингер / Nightcrawler (Дэн Гилрой / Dan Gilroy) [2014, США, триллер, драма, криминал, WEB-DLRip] DVO (Пиратская студия)

Сообщение Strelok77795 » 01 фев 2015, 02:22

Стрингер / Nightcrawler


Страна: США
Жанр: триллер, драма, криминал
Год выпуска: 2014
Продолжительность: 01:58:01

Перевод: Любительский (двухголосый закадровый) [Пиратская студия]
Cубтитры: нет
Оригинальная аудиодорожка: нет

Режиссер: Дэн Гилрой / Dan Gilroy

В ролях: Джейк Джилленхол, Рене Руссо, Билл Пэкстон, Джонни Койн, Энн МакДэниелс, Риз Ахмед, Джейми МакШейн, Кэтлин Йорк, Эрик Ланж, Майкл Хайатт елли, Филип Марлатт, Натали Де Луна, Эрик Янг

Описание: Парень из Лос-Анджелеса Лу Блум (Джейк Джилленхол) промышляет нелегальной торговлей металлом. Абсолютно неперспективное занятие, учитывая тот факт, что никто не соглашается взять его на нормальную работу, зная, что он вор.


Качество видео: WEB-DLRip [рип с WEBDL 720p]
Формат видео: AVI
Видео: 640x272 (2.35:1), 23.976 fps, XviD build 73 ~752 kbps avg, 0.18 bit/pixel
Аудио: 48 kHz, MPEG Layer 3, 2 ch, ~128.00 kbps avg
Общее
Полное имя : S:ФильмыСтрингер. 2014. WEB-DLRip (AleksSin).avi
Формат : AVI
Формат/Информация : Audio Video Interleave
Размер файла : 751 Мбайт
Продолжительность : 1 ч. 58 м.
Общий поток : 890 Кбит/сек
Программа кодирования : VirtualDubMod 1.5.10.3 | http://www.virtualdub-fr.org || (build 2550/release)
Библиотека кодирования : VirtualDubMod build 2550/release

Видео
Идентификатор : 0
Формат : MPEG-4 Visual
Профиль формата : Advanced [email protected]
Параметр BVOP формата : 1
Параметр QPel формата : Нет
Параметр GMC формата : Без точки перехода
Параметр матрицы формата : Выборочная
Идентификатор кодека : XVID
Идентификатор кодека/Подсказка : XviD
Продолжительность : 1 ч. 58 м.
Битрейт : 753 Кбит/сек
Ширина : 640 пикс.
Высота : 272 пикс.
Соотношение сторон : 2,35:1
Частота кадров : 23,976 кадр/сек
Цветовое пространство : YUV
Подвыборка цветности : 4:2:0
Битовая глубина : 8 бит
Тип развёртки : Прогрессивная
Метод сжатия : С потерями
Бит/(Пиксели*Кадры) : 0.180
Размер потока : 635 Мбайт (85%)
Библиотека кодирования : XviD 73

Аудио
Идентификатор : 1
Формат : MPEG Audio
Версия формата : Version 1
Профиль формата : Layer 3
Идентификатор кодека : 55
Идентификатор кодека/Подсказка : MP3
Продолжительность : 1 ч. 57 м.
Вид битрейта : Постоянный
Битрейт : 128 Кбит/сек
Каналы : 2 канала
Частота : 48,0 КГц
Метод сжатия : С потерями
Размер потока : 108 Мбайт (14%)
Выравнивание : Соединение по промежуткам
Продолжительность промежутка : 42 мс. (1,00 видеокадр)
Время предзагрузки промежутка : 504 ms
Библиотека кодирования : LAME3.99r
Настройки программы : -m s -V 4 -q 2 -lowpass 17 -b 128
   
Торрент: Зарегистрирован [01 фев 2015, 02:22] Скачать торрент
Скачать торрент
О MediaGet
[ Размер 15.29 КБ / Просмотров 33 ]

Статус:
 
Приватный: Нет (DHT включён)
Размер: 751.23 МБ (787 724 288 байт)
   
Аватара пользователя

Модератор видео
Модератор видео
 
Раздал: 46.12 ТБ
Скачал: 39.63 ГБ
Ратио: 1223.484
Сообщения: 3493
Фото: 17
Зарегистрирован: 22 сен 2012, 23:13
Medals: 2
1000 раздач! (1) 1 место (1)

Вернуться в Зарубежные фильмы (Rip's)

Кто сейчас на конференции

Зарегистрированные пользователи: нет зарегистрированных пользователей

Ресурс не предоставляет электронные версии произведений, а занимается лишь коллекционированием и каталогизацией ссылок, присылаемых и публикуемых на форуме нашими читателями. Если вы являетесь правообладателем какого-либо представленного материала и не желаете чтобы ссылка на него находилась в нашем каталоге, свяжитесь с нами и мы незамедлительно удалим её. Файлы для обмена на трекере предоставлены пользователями сайта, и администрация не несёт ответственности за их содержание. Просьба не заливать файлы, защищенные авторскими правами, а также файлы нелегального содержания!
cron