Не шутите с Zоханом! / You Don't Mess with the Zohan (Деннис Дуган / Dennis Dugan) [2008, боевик, драма, комедия, BDRip-AVC][HQCLUB] Лицензия скачать торрент

Мировая классика кино, Rip, Рипы, Зарубежные фильмы

Модератор: Модераторы видео

  • Статистика раздачи
Размер: 4.43 ГБ   |  Зарегистрирован: 02 дек 2014, 12:20   |   .torrent скачан: 127 раз
Сидеров: 50  [ 0 байт/сек ]     Личеров: 16  [ 0 байт/сек ]  
Список файлов : Кто скачал : Раздают : Скачивают : Кто благодарил : История : Не раздающие : Запрашивали сидеров : Внешние трекеры 
  

Не шутите с Zоханом! / You Don't Mess with the Zohan (Деннис Дуган / Dennis Dugan) [2008, боевик, драма, комедия, BDRip-AVC][HQCLUB] Лицензия

Сообщение FaNaTiK » 02 дек 2014, 12:20

Не шутите с Zоханом! / You Don't Mess with the Zohan


Год выпуска: 2008
Жанр: боевик, драма, Комедия
Выпущено: США / Columbia Pictures
Продолжительность: 01:52:47
Озвучивание: Профессиональный (полное дублирование)
Субтитры: русские (полные, форсированные), украинские (форсированные), английские (полные, полные SDH)


Режиссер: Деннис Дуган / Dennis Dugan
В ролях: Адам Сэндлер, Джон Туртурро, Эммануэль Шрики, Ник Свардсон, Лэйни Казан, Идо Муссари, Роб Шнайдер, Дэйв Мэтьюз, Майкл Баффер, Шарлотта Рэй


О фильме: Зохан — израильский коммандос, агент Моссада и антитеррорист — во время захвата известного мирового преступника инсценирует собственную гибель, дабы завязать с героическим прошлым и осуществить свою давнюю мечту: стать стилистом в Нью-Йорке. Вооружившись ножницами и желанным руководством, он решает начать свою карьеру в небольшом салоне.





Формат: MKV
Качество: BDRip-AVC
Видео: 1152x624 (1.85:1), 23.976 fps, MPEG-4 AVC, ~4177 kbps avg, 0.242 bit/pixel
Аудио #1: 48 kHz, AC3 Dolby Digital, 3/2 (L,C,R,l,r) + LFE ch, ~448 kbps avg (DUB)
Аудио #2: 48 kHz, AC3 Dolby Digital, 3/2 (L,C,R,l,r) + LFE ch, ~448 kbps avg (ENG)
Аудио #3: 48 kHz, AC3 Dolby Digital, 3/2 (L,C,R,l,r) + LFE ch, ~448 kbps avg (UKR) (отдельно)


Уникальный идентификатор : 194656720583655222523010697566494456951 (0x9271854CE95F7A4D90B7494699E8FC77)
Полное имя : You.Don't.Mess.with.the.Zohan.2008.DUAL.BDRip-AVC.x264.AC3.-HQCLUB.mkv
Формат : Matroska
Версия формата : Version 2
Размер файла : 4,08 Гбайт
Продолжительность : 1 ч. 52 м.
Общий поток : 5176 Кбит/сек
Дата кодирования : UTC 2014-11-30 15:29:26
Программа кодирования : mkvmerge v5.2.0 ('I can't explain') built on Dec 18 2011 18:12:03
Библиотека кодирования : libebml v1.2.3 + libmatroska v1.3.0

Видео
Идентификатор : 1
Формат : AVC
Формат/Информация : Advanced Video Codec
Профиль формата : [email protected]
Параметр CABAC формата : Да
Параметр ReFrames формата : 11 кадров
Идентификатор кодека : V_MPEG4/ISO/AVC
Продолжительность : 1 ч. 52 м.
Битрейт : 4177 Кбит/сек
Ширина : 1152 пикселя
Высота : 624 пикселя
Соотношение сторон : 1,85:1
Режим частоты кадров : Постоянный
Частота кадров : 23,976 кадра/сек
Цветовое пространство : YUV
Субдискретизация насыщенности : 4:2:0
Битовая глубина : 8 бит
Тип развёртки : Прогрессивная
Бит/(Пиксели*Кадры) : 0.242
Размер потока : 3,29 Гбайт (81%)
Заголовок : Не шутите с Zоханом! / You Don't Mess with the Zohan (2008) BDRip-AVC by HQCLUB [Elheym]
Библиотека кодирования : x264 core 142 r2479kMod dd79a61
Настройки программы : cabac=1 / ref=11 / deblock=1:-3:-2 / analyse=0x3:0x133 / me=umh / subme=11 / psy=1 / fade_compensate=0.00 / psy_rd=1.04:0.00 / mixed_ref=1 / me_range=32 / chroma_me=1 / trellis=2 / 8x8dct=1 / cqm=0 / deadzone=21,11 / fast_pskip=0 / chroma_qp_offset=-4 / threads=5 / lookahead_threads=1 / sliced_threads=0 / nr=0 / decimate=0 / interlaced=0 / bluray_compat=0 / constrained_intra=0 / fgo=0 / bframes=9 / b_pyramid=2 / b_adapt=2 / b_bias=0 / direct=1 / weightb=1 / open_gop=0 / weightp=2 / keyint=230 / keyint_min=23 / scenecut=40 / intra_refresh=0 / rc_lookahead=40 / rc=crf / mbtree=1 / crf=18.8000 / qcomp=0.70 / qpmin=0 / qpmax=69 / qpstep=4 / vbv_maxrate=50000 / vbv_bufsize=62500 / crf_max=0.0 / nal_hrd=none / filler=0 / ip_ratio=1.40 / aq=3:0.90 / zones=154980,162263,q=38
Язык : English
Default : Да
Forced : Нет

Аудио #1
Идентификатор : 2
Формат : AC-3
Формат/Информация : Audio Coding 3
Расширение режима : CM (complete main)
Параметр Endianness формата : Big
Идентификатор кодека : A_AC3
Продолжительность : 1 ч. 52 м.
Вид битрейта : Постоянный
Битрейт : 448 Кбит/сек
Каналы : 6 каналов
Расположение каналов : Front: L C R, Side: L R, LFE
Частота : 48,0 КГц
Битовая глубина : 16 бит
Метод сжатия : С потерями
Размер потока : 361 Мбайт (9%)
Заголовок : АС3 5.1 @ 448 kbps - Dub
Язык : Russian
Default : Нет
Forced : Нет

Аудио #2
Идентификатор : 3
Формат : AC-3
Формат/Информация : Audio Coding 3
Расширение режима : CM (complete main)
Параметр Endianness формата : Big
Идентификатор кодека : A_AC3
Продолжительность : 1 ч. 52 м.
Вид битрейта : Постоянный
Битрейт : 448 Кбит/сек
Каналы : 6 каналов
Расположение каналов : Front: L C R, Side: L R, LFE
Частота : 48,0 КГц
Битовая глубина : 16 бит
Метод сжатия : С потерями
Размер потока : 361 Мбайт (9%)
Заголовок : АС3 5.1 @ 448 kbps - Original
Язык : English
Default : Нет
Forced : Нет

Текст #1
Идентификатор : 4
Формат : UTF-8
Идентификатор кодека : S_TEXT/UTF8
Идентификатор кодека/Информация : UTF-8 Plain Text
Заголовок : Full
Язык : Russian
Default : Нет
Forced : Нет

Текст #2
Идентификатор : 5
Формат : UTF-8
Идентификатор кодека : S_TEXT/UTF8
Идентификатор кодека/Информация : UTF-8 Plain Text
Заголовок : Forced
Язык : Russian
Default : Нет
Forced : Нет

Текст #3
Идентификатор : 6
Формат : UTF-8
Идентификатор кодека : S_TEXT/UTF8
Идентификатор кодека/Информация : UTF-8 Plain Text
Заголовок : Forced
Язык : Ukrainian
Default : Нет
Forced : Нет

Текст #4
Идентификатор : 7
Формат : UTF-8
Идентификатор кодека : S_TEXT/UTF8
Идентификатор кодека/Информация : UTF-8 Plain Text
Заголовок : Full
Язык : English
Default : Нет
Forced : Нет

Текст #5
Идентификатор : 8
Формат : UTF-8
Идентификатор кодека : S_TEXT/UTF8
Идентификатор кодека/Информация : UTF-8 Plain Text
Заголовок : Full SDH
Язык : English
Default : Нет
Forced : Нет

Меню
00:00:00.000 : :Chapter 01
00:07:48.092 : :Chapter 02
00:13:38.567 : :Chapter 03
00:19:05.102 : :Chapter 04
00:26:58.616 : :Chapter 05
00:32:23.232 : :Chapter 06
00:39:54.934 : :Chapter 07
00:45:55.669 : :Chapter 08
00:52:45.662 : :Chapter 09
01:00:40.470 : :Chapter 10
01:08:39.448 : :Chapter 11
01:16:13.485 : :Chapter 12
01:22:58.681 : :Chapter 13
01:28:34.225 : :Chapter 14
01:35:21.465 : :Chapter 15
01:44:36.269 : :Chapter 16
   
Торрент: Зарегистрирован [02 дек 2014, 12:20] Скачать торрент
Скачать торрент
О MediaGet
[ Размер 23.1 КБ / Просмотров 13 ]

Статус:
 
Приватный: Нет (DHT включён)
Размер: 4.43 ГБ (4 757 844 615 байт)
   
Аватара пользователя

Модератор музыки
Модератор музыки
 
Раздал: 19.27 ТБ
Скачал: 756.17 МБ
Ратио: None.
Сообщения: 2097
Фото: 7
Зарегистрирован: 13 ноя 2013, 17:22
Откуда: Дмитров
Medals: 2
Лучший релиз за год (1) 1000 раздач! (1)
  • Личное сообщение
  • Сайт

  • Похожие торренты
    Ответы
    Просмотры
    Последнее сообщение

Вернуться в Зарубежные фильмы (Rip's)

Кто сейчас на конференции

Зарегистрированные пользователи: нет зарегистрированных пользователей

Ресурс не предоставляет электронные версии произведений, а занимается лишь коллекционированием и каталогизацией ссылок, присылаемых и публикуемых на форуме нашими читателями. Если вы являетесь правообладателем какого-либо представленного материала и не желаете чтобы ссылка на него находилась в нашем каталоге, свяжитесь с нами и мы незамедлительно удалим её. Файлы для обмена на трекере предоставлены пользователями сайта, и администрация не несёт ответственности за их содержание. Просьба не заливать файлы, защищенные авторскими правами, а также файлы нелегального содержания!
cron