Мертвая Зона / The Dead Zone (Дэвид Кроненберг /David Cronenberg) [1983, Драма, фэнтези, триллер, экранизация, BDRip 720][MediaClub] P, P2, A, L1 скачать торрент

Мировая классика кино, Rip, Рипы, Зарубежные фильмы

Модератор: Модераторы видео

  • Статистика раздачи
Размер: 7.94 ГБ   |  Зарегистрирован: 13 ноя 2014, 15:56   |   .torrent скачан: 45 раз
Сидеров: 60  [ 0 байт/сек ]     Личеров: 0  [ 0 байт/сек ]  
Список файлов : Кто скачал : Раздают : Скачивают : Кто благодарил : История : Не раздающие : Запрашивали сидеров : Внешние трекеры 
  

Мертвая Зона / The Dead Zone (Дэвид Кроненберг /David Cronenberg) [1983, Драма, фэнтези, триллер, экранизация, BDRip 720][MediaClub] P, P2, A, L1

Сообщение FaNaTiK » 13 ноя 2014, 15:56

Мертвая Зона / The Dead Zone


Год выпуска: 1983
Страна: США / Dino De Laurentiis Company, Lorimar Film Entertainment
Жанр: Драма, фэнтези, триллер, экранизация
Продолжительность: 01:43:44
Озвучивание: Профессиональный многоголосый, профессиональный двухголосый, авторский, любительский одноголосый


Режиссер: Дэвид Кроненберг /David Cronenberg
В ролях: Кристофер Уокен, Брук Адамс, Том Скерритт, Херберт Лом, Энтони Зербе, Коллин Дьюхёрст, Мартин Шин, Николас Кэмпбелл, Шон Салливан, Джеки Барроуз


О фильме: Экранизация одноименного романа Стивена Кинга. Возвращаясь с прогулки на машине, со своей девушкой, преподователь литературы Джон Смит попадает в аварию. В течении пяти лет, после катастрофы он пребывает в коме. Пять потерянных лет. Но, придя в себя, он приобретает сверхъестественные способности, которыми обладают лишь экстрасенсы - дар предсказывать катастрофы и судьбы людей. Его уникальными возможностями вначале интересуются полиция, а затем и политики большого ранга. И вскоре выяснилось, что только Джон Смит может остановить неразборчивого в средствах политика, рвущегося к власти...





Формат: MKV
Качество: BDRip 720
Видео: MPEG-4 AVC, 8200 Кбит/с, 1280x720, 23.976 кадр/с
Аудио:
Аудио #1: Русский (AC3, 6 ch, 448 Кбит/с) / Профессиональный многоголосый (Позитив-Мультимедиа)
Аудио #2: Русский (AC3, 2 ch, 192 Кбит/с) / Профессиональный многоголосый (ТВ-3)
Аудио #3: Русский (AC3, 6 ch, 448 Кбит/с) / Профессиональный двухголосый (CP-Digital)
Аудио #4: Русский (AC3, 6 ch, 448 Кбит/с) / Авторский одноголосый (Живов)
Аудио #5: Русский (AC3, 2 ch, 192 Кбит/с) / Авторский одноголосый (Михалев)
Аудио #6: Русский (AC3, 2 ch, 192 Кбит/с) / Авторский одноголосый (Сербин)
Аудио #7: Русский (AC3, 2 ch, 192 Кбит/с) / Авторский одноголосый (Товбин)
Аудио #8: Русский (AC3, 2 ch, 192 Кбит/с) / Любительский одноголосый (Ужастик)
Аудио #9: Английский (AC3, 6 ch, 448 Кбит/с)
Субтитры: Русские, английские


x264 [info]: frame I:1010 Avg QP:16.57 size:164365
x264 [info]: frame P:30067 Avg QP:19.12 size: 73299
x264 [info]: frame B:118134 Avg QP:21.16 size: 33914
x264 [info]: consecutive B-frames: 1.1% 2.0% 4.9% 21.2% 14.6% 41.9% 6.9% 6.5% 0.3% 0.2% 0.1% 0.2% 0.1%
*********************************************************************************************************************************
Общее
Уникальный идентификатор : 188123356994690014889115710407807159107 (0x8D873D9B129F970889FDB8FAF32D4B43)
Полное имя : D:Mои раздачиMertvaya.zona.1983.BDRip.720p-MediaClub.mkv
Формат : Matroska
Версия формата : Version 4 / Version 2
Размер файла : 7,94 Гбайт
Продолжительность : 1 ч. 43 м.
Общий поток : 11,0 Мбит/сек
Название фильма : -=MediaClub-kaspr=-
Дата кодирования : UTC 2014-11-12 19:16:36
Программа кодирования : mkvmerge v6.9.1 ('Blue Panther') 64bit built on Apr 18 2014 18:23:38
Библиотека кодирования : libebml v1.3.0 + libmatroska v1.4.1

Видео
Идентификатор : 1
Формат : AVC
Формат/Информация : Advanced Video Codec
Профиль формата : [email protected]
Параметр CABAC формата : Да
Параметр ReFrames формата : 9 кадров
Идентификатор кодека : V_MPEG4/ISO/AVC
Продолжительность : 1 ч. 43 м.
Битрейт : 8200 Кбит/сек
Ширина : 1280 пикселей
Высота : 720 пикселей
Соотношение сторон : 16:9
Режим частоты кадров : Постоянный
Частота кадров : 23,976 кадра/сек
Цветовое пространство : YUV
Субдискретизация насыщенности : 4:2:0
Битовая глубина : 8 бит
Тип развёртки : Прогрессивная
Бит/(Пиксели*Кадры) : 0.371
Размер потока : 5,78 Гбайт (73%)
Заголовок : -=MediaClub-kaspr=-
Библиотека кодирования : x264 core 142 r2431+42 c69a006 tMod [[email protected]:2:0 X86_64]
Настройки программы : cabac=1 / ref=9 / deblock=1:-3:-3 / analyse=0x3:0x113 / me=umh / subme=11 / psy=1 / fade_compensate=0.00 / psy_rd=1.00:0.00 / mixed_ref=1 / me_range=32 / chroma_me=1 / trellis=2 / 8x8dct=1 / cqm=0 / deadzone=21,11 / fast_pskip=0 / chroma_qp_offset=-2 / threads=12 / lookahead_threads=3 / sliced_threads=0 / nr=0 / decimate=0 / interlaced=0 / bluray_compat=0 / constrained_intra=0 / fgo=0 / bframes=12 / b_pyramid=2 / b_adapt=2 / b_bias=0 / direct=3 / weightb=1 / open_gop=0 / weightp=2 / keyint=240 / keyint_min=23 / scenecut=40 / intra_refresh=0 / rc=2pass / mbtree=0 / bitrate=8200 / ratetol=1.0 / qcomp=0.60 / qpmin=0:0:0 / qpmax=69:69:69 / qpstep=4 / cplxblur=20.0 / qblur=0.5 / ip_ratio=1.40 / pb_ratio=1.30 / aq=4:0.80 / aq-sensitivity=10.00 / aq-factor=1.00:1.00:1.00 / aq2=0 / aq3=0
Default : Да
Forced : Нет

Аудио #1
Идентификатор : 2
Формат : AC-3
Формат/Информация : Audio Coding 3
Расширение режима : CM (complete main)
Параметр Endianness формата : Big
Идентификатор кодека : A_AC3
Продолжительность : 1 ч. 43 м.
Вид битрейта : Постоянный
Битрейт : 448 Кбит/сек
Каналы : 6 каналов
Расположение каналов : Front: L C R, Side: L R, LFE
Частота : 48,0 КГц
Битовая глубина : 16 бит
Метод сжатия : С потерями
Размер потока : 332 Мбайт (4%)
Заголовок : MVO (Позитив)
Язык : Russian
Default : Да
Forced : Нет

Аудио #2
Идентификатор : 3
Формат : AC-3
Формат/Информация : Audio Coding 3
Расширение режима : CM (complete main)
Параметр Endianness формата : Big
Идентификатор кодека : A_AC3
Продолжительность : 1 ч. 43 м.
Вид битрейта : Постоянный
Битрейт : 192 Кбит/сек
Каналы : 2 канала
Расположение каналов : Front: L R
Частота : 48,0 КГц
Битовая глубина : 16 бит
Метод сжатия : С потерями
Размер потока : 142 Мбайт (2%)
Заголовок : MVO (ТВ-3)
Язык : Russian
Default : Нет
Forced : Нет

Аудио #3
Идентификатор : 4
Формат : AC-3
Формат/Информация : Audio Coding 3
Расширение режима : CM (complete main)
Параметр Endianness формата : Big
Идентификатор кодека : A_AC3
Продолжительность : 1 ч. 43 м.
Вид битрейта : Постоянный
Битрейт : 448 Кбит/сек
Каналы : 6 каналов
Расположение каналов : Front: L C R, Side: L R, LFE
Частота : 48,0 КГц
Битовая глубина : 16 бит
Метод сжатия : С потерями
Размер потока : 332 Мбайт (4%)
Заголовок : DVO (CP-Digital)
Язык : Russian
Default : Нет
Forced : Нет

Аудио #4
Идентификатор : 5
Формат : AC-3
Формат/Информация : Audio Coding 3
Расширение режима : CM (complete main)
Параметр Endianness формата : Big
Идентификатор кодека : A_AC3
Продолжительность : 1 ч. 43 м.
Вид битрейта : Постоянный
Битрейт : 448 Кбит/сек
Каналы : 6 каналов
Расположение каналов : Front: L C R, Side: L R, LFE
Частота : 48,0 КГц
Битовая глубина : 16 бит
Метод сжатия : С потерями
Размер потока : 332 Мбайт (4%)
Заголовок : Живов
Язык : Russian
Default : Нет
Forced : Нет

Аудио #5
Идентификатор : 6
Формат : AC-3
Формат/Информация : Audio Coding 3
Расширение режима : CM (complete main)
Параметр Endianness формата : Big
Идентификатор кодека : A_AC3
Продолжительность : 1 ч. 43 м.
Вид битрейта : Постоянный
Битрейт : 192 Кбит/сек
Каналы : 2 канала
Расположение каналов : Front: L R
Частота : 48,0 КГц
Битовая глубина : 16 бит
Метод сжатия : С потерями
Размер потока : 142 Мбайт (2%)
Заголовок : Михалев
Язык : Russian
Default : Нет
Forced : Нет

Аудио #6
Идентификатор : 7
Формат : AC-3
Формат/Информация : Audio Coding 3
Расширение режима : CM (complete main)
Параметр Endianness формата : Big
Идентификатор кодека : A_AC3
Продолжительность : 1 ч. 43 м.
Вид битрейта : Постоянный
Битрейт : 192 Кбит/сек
Каналы : 2 канала
Расположение каналов : Front: L R
Частота : 48,0 КГц
Битовая глубина : 16 бит
Метод сжатия : С потерями
Размер потока : 142 Мбайт (2%)
Заголовок : Сербин
Язык : Russian
Default : Нет
Forced : Нет

Аудио #7
Идентификатор : 8
Формат : AC-3
Формат/Информация : Audio Coding 3
Расширение режима : CM (complete main)
Параметр Endianness формата : Big
Идентификатор кодека : A_AC3
Продолжительность : 1 ч. 43 м.
Вид битрейта : Постоянный
Битрейт : 192 Кбит/сек
Каналы : 2 канала
Расположение каналов : Front: L R
Частота : 48,0 КГц
Битовая глубина : 16 бит
Метод сжатия : С потерями
Размер потока : 142 Мбайт (2%)
Заголовок : Товбин
Язык : Russian
Default : Нет
Forced : Нет

Аудио #8
Идентификатор : 9
Формат : AC-3
Формат/Информация : Audio Coding 3
Расширение режима : CM (complete main)
Параметр Endianness формата : Big
Идентификатор кодека : A_AC3
Продолжительность : 1 ч. 43 м.
Вид битрейта : Постоянный
Битрейт : 192 Кбит/сек
Каналы : 2 канала
Расположение каналов : Front: L R
Частота : 48,0 КГц
Битовая глубина : 16 бит
Метод сжатия : С потерями
Размер потока : 142 Мбайт (2%)
Заголовок : Ужастик
Язык : Russian
Default : Нет
Forced : Нет

Аудио #9
Идентификатор : 10
Формат : AC-3
Формат/Информация : Audio Coding 3
Расширение режима : CM (complete main)
Параметр Endianness формата : Big
Идентификатор кодека : A_AC3
Продолжительность : 1 ч. 43 м.
Вид битрейта : Постоянный
Битрейт : 448 Кбит/сек
Каналы : 6 каналов
Расположение каналов : Front: L C R, Side: L R, LFE
Частота : 48,0 КГц
Битовая глубина : 16 бит
Метод сжатия : С потерями
Размер потока : 332 Мбайт (4%)
Язык : English
Default : Нет
Forced : Нет

Текст #1
Идентификатор : 11
Формат : UTF-8
Идентификатор кодека : S_TEXT/UTF8
Идентификатор кодека/Информация : UTF-8 Plain Text
Язык : Russian
Default : Нет
Forced : Нет

Текст #2
Идентификатор : 12
Формат : UTF-8
Идентификатор кодека : S_TEXT/UTF8
Идентификатор кодека/Информация : UTF-8 Plain Text
Язык : English
Default : Нет
Forced : Нет

Меню
00:00:00.000 : en:Chapter 01
00:00:00.375 : en:Chapter 02
00:16:49.842 : en:Chapter 03
00:34:55.093 : en:Chapter 04
00:50:51.131 : en:Chapter 05
01:09:55.941 : en:Chapter 06
01:28:13.037 : en:Chapter 07
   
Торрент: Зарегистрирован [13 ноя 2014, 15:56] За каждые 2 ГБ. аплоада (сидирования) этого торрента начисляется бонус: 0.001 Скачать торрент
Скачать торрент
О MediaGet
[ Размер 20.49 КБ / Просмотров 20 ]

Статус:
 
Приватный: Нет (DHT включён)
Размер: 7.94 ГБ (8 520 547 331 байт)
   
Аватара пользователя

Модератор музыки
Модератор музыки
 
Раздал: 19.27 ТБ
Скачал: 756.17 МБ
Ратио: None.
Сообщения: 2050
Фото: 7
Зарегистрирован: 13 ноя 2013, 17:22
Откуда: Дмитров
Medals: 2
Лучший релиз за год (1) 1000 раздач! (1)
  • Личное сообщение
  • Сайт

Вернуться в Зарубежные фильмы (Rip's)

Кто сейчас на конференции

Зарегистрированные пользователи: Perpetum, walek1404

Ресурс не предоставляет электронные версии произведений, а занимается лишь коллекционированием и каталогизацией ссылок, присылаемых и публикуемых на форуме нашими читателями. Если вы являетесь правообладателем какого-либо представленного материала и не желаете чтобы ссылка на него находилась в нашем каталоге, свяжитесь с нами и мы незамедлительно удалим её. Файлы для обмена на трекере предоставлены пользователями сайта, и администрация не несёт ответственности за их содержание. Просьба не заливать файлы, защищенные авторскими правами, а также файлы нелегального содержания!
cron