Страховщик / Autómata ( Габе Ибаньес / Gabe Ibáñez ) [2014, фантастика, триллер, BDRip-AVC] iTunes скачать торрент

Мировая классика кино, Rip, Рипы, Зарубежные фильмы

Модератор: Модераторы видео

  • Статистика раздачи
Размер: 2.05 ГБ   |  Зарегистрирован: 04 ноя 2014, 19:50   |   .torrent скачан: 57 раз
Сидеров: 80  [ 0 байт/сек ]     Личеров: 1  [ 0 байт/сек ]  
Список файлов : Кто скачал : Раздают : Скачивают : Кто благодарил : История : Не раздающие : Запрашивали сидеров : Внешние трекеры 
  

Страховщик / Autómata ( Габе Ибаньес / Gabe Ibáñez ) [2014, фантастика, триллер, BDRip-AVC] iTunes

Сообщение 22alias11 » 30 окт 2014, 00:43

Страховщик / Autómata


Информация о фильме
Название: Страховщик
Оригинальное название: Autómata
Год выпуска: 2014
Выпущено: Испания, Болгария
Жанр: фантастика, триллер
Режиссер: Габе Ибаньес
В ролях: Антонио Бандерас, Биргитта Йорт Сёренсен, Мелани Гриффит, Дилан МакДермотт, Роберт Форстер, Тим МакИннерни, Энди Найман, Дэвид Райалл, Эндрю Тирнан, Криста Кэмпбелл

О фильме: Главным героем фильма станет страховой агент компании по изготовлению роботов Жак Вокан, который обнаруживает, что изобретаемые роботы создаются не для эксплуатации, а для истребления.


Файл
Качество: BDRip (AVC)
Видео: MPEG-4 AVC, 1830 Кбит/с, 720x304, 23.976 кадр/с
Аудио: Русский (АС3, 6 ch, 384 Кбит/с), английский (АС3, 6 ch, 448 Кбит/с)
Продолжительность: 01:49:54
Перевод: Дублированный (iTunes)
Субтитры: Русские, английские
General
Unique ID : 242063356139906534179688657496274291442 (0xB61BB4E3ED01945F902255194C02CAF2)
Complete name : C:Automata.2014.Dt.BDRip.AVC.2100.ExKinoRay.mkv
Format : Matroska
Format version : Version 2
File size : 2.05 GiB
Duration : 1h 49mn
Overall bit rate : 2 664 Kbps
Movie name : Autómata 2014 from ExKinoRay
Encoded date : UTC 2014-11-04 13:53:51
Writing application : mkvmerge v4.9.1 ('Ich will') built on Jul 11 2011 23:53:15
Writing library : libebml v1.2.1 + libmatroska v1.1.1

Video
ID : 1
Format : AVC
Format/Info : Advanced Video Codec
Format profile : [email protected]
Format settings, CABAC : Yes
Format settings, ReFrames : 9 frames
Codec ID : V_MPEG4/ISO/AVC
Duration : 1h 49mn
Bit rate : 1 830 Kbps
Width : 720 pixels
Height : 304 pixels
Display aspect ratio : 2.35:1
Frame rate mode : Constant
Frame rate : 23.976 fps
Color space : YUV
Chroma subsampling : 4:2:0
Bit depth : 8 bits
Scan type : Progressive
Bits/(Pixel*Frame) : 0.349
Stream size : 1.37 GiB (67%)
Title : Enigma
Writing library : x264 core 133 r2334 a3ac64b
Encoding settings : cabac=1 / ref=9 / deblock=1:-2:-2 / analyse=0x3:0x113 / me=umh / subme=11 / psy=1 / psy_rd=1.00:0.10 / mixed_ref=1 / me_range=32 / chroma_me=1 / trellis=2 / 8x8dct=1 / cqm=0 / deadzone=21,11 / fast_pskip=0 / chroma_qp_offset=-3 / threads=12 / lookahead_threads=2 / sliced_threads=0 / nr=0 / decimate=0 / interlaced=0 / bluray_compat=0 / constrained_intra=0 / bframes=9 / b_pyramid=2 / b_adapt=2 / b_bias=0 / direct=3 / weightb=1 / open_gop=0 / weightp=2 / keyint=240 / keyint_min=23 / scenecut=40 / intra_refresh=0 / rc=2pass / mbtree=0 / bitrate=1830 / ratetol=1.0 / qcomp=0.60 / qpmin=0 / qpmax=69 / qpstep=4 / cplxblur=20.0 / qblur=0.5 / ip_ratio=1.40 / pb_ratio=1.30 / aq=1:1.00
Language : English
Default : Yes
Forced : No
Color primaries : BT.709
Transfer characteristics : BT.709
Matrix coefficients : BT.709

Audio #1
ID : 2
Format : AC-3
Format/Info : Audio Coding 3
Mode extension : CM (complete main)
Format settings, Endianness : Big
Codec ID : A_AC3
Duration : 1h 49mn
Bit rate mode : Constant
Bit rate : 384 Kbps
Channel(s) : 6 channels
Channel positions : Front: L C R, Side: L R, LFE
Sampling rate : 48.0 KHz
Bit depth : 16 bits
Compression mode : Lossy
Stream size : 302 MiB (14%)
Title : DUB iTunes
Language : Russian
Default : Yes
Forced : No

Audio #2
ID : 3
Format : AC-3
Format/Info : Audio Coding 3
Mode extension : CM (complete main)
Format settings, Endianness : Big
Codec ID : A_AC3
Duration : 1h 49mn
Bit rate mode : Constant
Bit rate : 448 Kbps
Channel(s) : 6 channels
Channel positions : Front: L C R, Side: L R, LFE
Sampling rate : 48.0 KHz
Bit depth : 16 bits
Compression mode : Lossy
Stream size : 352 MiB (17%)
Language : English
Default : No
Forced : No

Text #1
ID : 4
Format : UTF-8
Codec ID : S_TEXT/UTF8
Codec ID/Info : UTF-8 Plain Text
Language : Russian
Default : No
Forced : No

Text #2
ID : 5
Format : UTF-8
Codec ID : S_TEXT/UTF8
Codec ID/Info : UTF-8 Plain Text
Language : English
Default : No
Forced : No

Menu
00:00:00.000 : :Chapter 01
00:09:40.453 : :Chapter 02
00:18:46.916 : :Chapter 03
00:28:32.835 : :Chapter 04
00:39:07.094 : :Chapter 05
00:47:33.475 : :Chapter 06
00:56:55.954 : :Chapter 07
01:06:05.503 : :Chapter 08
01:17:27.809 : :Chapter 09
01:26:11.957 : :Chapter 10
01:34:06.474 : :Chapter 11
01:44:53.412 : :Chapter 12
01:49:54.087 : :Chapter 13
   
Торрент: Зарегистрирован [04 ноя 2014, 19:50] Скачать торрент
Скачать торрент
О MediaGet
[ Размер 10.85 КБ / Просмотров 119 ]

Статус:
 
Приватный: Нет (DHT включён)
Размер: 2.05 ГБ (2 196 006 844 байт)
   
Аватара пользователя
Serial R.G.
Serial R.G.
 
Раздал: 2.82 ТБ
Скачал: 677.38 ГБ
Ратио: 5.302
Сообщения: 256
Фото: 1
Зарегистрирован: 10 сен 2012, 21:57
ТегиСтраховщик, Autómata, Антонио, Бандерас, 2014,

  • Похожие торренты
    Ответы
    Просмотры
    Последнее сообщение

Re: Страховщик / Autómata ( Габе Ибаньес / Gabe Ibáñez ) [2014, фантастика, триллер, BDRip-AVC] iTunes

Сообщение 22alias11 » 04 ноя 2014, 19:52

22alias11 писал(а):Re: Страховщик / Autómata ( Габе Ибаньес / Gabe Ibáñez ) [2014, фантастика, триллер, BDRip-AVC] iTunes

Обновлено. Замена чистого звука на iTunes.
Аватара пользователя
Serial R.G.
Serial R.G.
 
Раздал: 2.82 ТБ
Скачал: 677.38 ГБ
Ратио: 5.302
Сообщения: 256
Фото: 1
Зарегистрирован: 10 сен 2012, 21:57


Вернуться в Зарубежные фильмы (Rip's)

Кто сейчас на конференции

Зарегистрированные пользователи: нет зарегистрированных пользователей

Ресурс не предоставляет электронные версии произведений, а занимается лишь коллекционированием и каталогизацией ссылок, присылаемых и публикуемых на форуме нашими читателями. Если вы являетесь правообладателем какого-либо представленного материала и не желаете чтобы ссылка на него находилась в нашем каталоге, свяжитесь с нами и мы незамедлительно удалим её. Файлы для обмена на трекере предоставлены пользователями сайта, и администрация не несёт ответственности за их содержание. Просьба не заливать файлы, защищенные авторскими правами, а также файлы нелегального содержания!
cron