Избави нас от лукавого / Deliver Us from Evil (Скотт Дерриксон) [2014, Ужасы, триллер, криминал, BDRip 1080p] Чистый звук скачать торрент

Мировая классика кино, Rip, Рипы, Зарубежные фильмы

Модератор: Модераторы видео

  • Статистика раздачи
Размер: 6.16 ГБ   |  Зарегистрирован: 14 окт 2014, 19:54   |   .torrent скачан: 1268 раз
Сидеров: 839  [ 0 байт/сек ]     Личеров: 10  [ 0 байт/сек ]  
Список файлов : Кто скачал : Раздают : Скачивают : Кто благодарил : История : Не раздающие : Запрашивали сидеров : Внешние трекеры 
  

Избави нас от лукавого / Deliver Us from Evil (Скотт Дерриксон) [2014, Ужасы, триллер, криминал, BDRip 1080p] Чистый звук

Сообщение 22alias11 » 14 окт 2014, 20:00

◈Избави нас от лукавого / Deliver Us from Evil◈


Информация о фильме
Название: Избави нас от лукавого
Оригинальное название: Deliver Us from Evil
Год выпуска: 2014
Жанр: Ужасы, триллер, криминал
Выпущено: США, Jerry Bruckheimer Films, Screen Gems
Режиссер: Скотт Дерриксон
В ролях: Эрик Бана, Эдгар Рамирес, Оливия Манн, Крис Кой, Дориан Миссик, Шон Харрис, Джоэл МакХэйл, Майк Хьюстон, Лулу Уилсон, Оливия Хортон

О фильме: Полиция Нью-Йорка расследует серию тревожных и необъяснимых преступлений. Один из офицеров обращается за помощью к специалисту по экзорцизму, чтобы избавить город от дьявольской напасти.

Техданные
Качество: BDRip (1080p)
Видео: MPEG-4 AVC, 5555 Кбит/с, 1920x800, 23.976 кадр/с
Аудио: Русский (AC3, 2 ch, 384 Кбит/с), английский (DTS, 6 ch, 1509 Кбит/c)
Размер: 6.16 ГБ
Продолжительность: 01:58:26
Перевод: Дублированный
Субтитры: Aнглийские
x264 [info]: frame I:1203 Avg QP:14.09 size:154695
x264 [info]: frame P:42055 Avg QP:17.98 size: 49885
x264 [info]: frame B:127118 Avg QP:19.55 size: 20844
x264 [info]: consecutive B-frames: 3.5% 4.9% 8.0% 30.5% 17.8% 25.8% 5.4% 3.1% 0.7% 0.3%
x264 [info]: mb I I16..4: 13.0% 71.5% 15.5%
x264 [info]: mb P I16..4: 1.8% 9.4% 0.9% P16..4: 33.5% 35.9% 6.5% 1.8% 0.1% skip:10.1%
x264 [info]: mb B I16..4: 0.1% 1.7% 0.1% B16..8: 40.4% 17.2% 1.6% direct: 4.8% skip:34.1% L0:46.4% L1:47.5% BI: 6.1%
x264 [info]: 8x8 transform intra:79.4% inter:61.9%
x264 [info]: direct mvs spatial:97.8% temporal:2.2%
x264 [info]: coded y,uvDC,uvAC intra: 84.9% 71.3% 48.1% inter: 26.8% 15.6% 4.3%
x264 [info]: i16 v,h,dc,p: 40% 15% 8% 37%
x264 [info]: i8 v,h,dc,ddl,ddr,vr,hd,vl,hu: 7% 7% 8% 10% 13% 13% 13% 13% 15%
x264 [info]: i4 v,h,dc,ddl,ddr,vr,hd,vl,hu: 9% 11% 9% 8% 13% 12% 13% 10% 14%
x264 [info]: i8c dc,h,v,p: 44% 25% 16% 15%
x264 [info]: Weighted P-Frames: Y:6.3% UV:4.3%
x264 [info]: ref P L0: 50.0% 6.5% 22.1% 10.4% 8.9% 1.9% 0.1%
x264 [info]: ref B L0: 74.6% 17.7% 6.0% 1.8%
x264 [info]: ref B L1: 91.7% 8.3%
x264 [info]: kb/s:5554.36
Общее
Уникальный идентификатор : 245907027961992998041278331265291351945 (0xB8FFF88ADA57DF6DB6E2E4DCE0577789)
Полное имя : D:ЗагрузкиDeliver.Us.From.Evil.2014.x264.BDRip.(1080p).ExKinoRay.mkv
Формат : Matroska
Версия формата : Version 2
Размер файла : 6,16 Гбайт
Продолжительность : 1 ч. 58 м.
Общий поток : 7450 Кбит/сек
Название фильма : Избави нас от лукавого.2014.Rip by: ollan
Дата кодирования : UTC 2014-10-14 16:13:40
Программа кодирования : mkvmerge v5.6.0 ('Kenya Kane') built on May 27 2012 16:44:04
Библиотека кодирования : libebml v1.2.3 + libmatroska v1.3.0

Видео
Идентификатор : 1
Формат : AVC
Формат/Информация : Advanced Video Codec
Профиль формата : [email protected]
Параметр CABAC формата : Да
Параметр ReFrames формата : 5 кадров
Идентификатор кодека : V_MPEG4/ISO/AVC
Продолжительность : 1 ч. 58 м.
Битрейт : 5555 Кбит/сек
Ширина : 1920 пикселей
Высота : 800 пикселей
Соотношение сторон : 2,40:1
Режим частоты кадров : Постоянный
Частота кадров : 23,976 кадра/сек
Цветовое пространство : YUV
Субдискретизация насыщенности : 4:2:0
Битовая глубина : 8 бит
Тип развёртки : Прогрессивная
Бит/(Пиксели*Кадры) : 0.151
Размер потока : 4,47 Гбайт (73%)
Библиотека кодирования : x264 core 125 r2200 999b753
Настройки программы : cabac=1 / ref=5 / deblock=1:-3:-3 / analyse=0x3:0x133 / me=umh / subme=11 / psy=1 / psy_rd=1.00:0.10 / mixed_ref=1 / me_range=32 / chroma_me=1 / trellis=2 / 8x8dct=1 / cqm=0 / deadzone=21,11 / fast_pskip=0 / chroma_qp_offset=-3 / threads=12 / lookahead_threads=2 / sliced_threads=0 / nr=0 / decimate=0 / interlaced=0 / bluray_compat=0 / constrained_intra=0 / bframes=9 / b_pyramid=2 / b_adapt=2 / b_bias=0 / direct=3 / weightb=1 / open_gop=0 / weightp=2 / keyint=240 / keyint_min=23 / scenecut=40 / intra_refresh=0 / rc_lookahead=60 / rc=2pass / mbtree=1 / bitrate=5555 / ratetol=1.0 / qcomp=0.60 / qpmin=0 / qpmax=69 / qpstep=4 / cplxblur=20.0 / qblur=0.5 / ip_ratio=1.40 / aq=1:1.00
Язык : English
Default : Да
Forced : Нет

Аудио #1
Идентификатор : 2
Формат : AC-3
Формат/Информация : Audio Coding 3
Расширение режима : CM (complete main)
Параметр Endianness формата : Big
Идентификатор кодека : A_AC3
Продолжительность : 1 ч. 58 м.
Вид битрейта : Постоянный
Битрейт : 384 Кбит/сек
Каналы : 2 канала
Расположение каналов : Front: L R
Частота : 48,0 КГц
Битовая глубина : 16 бит
Метод сжатия : С потерями
Размер потока : 325 Мбайт (5%)
Заголовок : Дублированный (Чистый звук)
Язык : Russian
Default : Да
Forced : Нет

Аудио #2
Идентификатор : 3
Формат : DTS
Формат/Информация : Digital Theater Systems
Режим : 16
Параметр Endianness формата : Big
Идентификатор кодека : A_DTS
Продолжительность : 1 ч. 58 м.
Вид битрейта : Постоянный
Битрейт : 1509 Кбит/сек
Каналы : 6 каналов
Расположение каналов : Front: L C R, Side: L R, LFE
Частота : 48,0 КГц
Битовая глубина : 16 бит
Метод сжатия : С потерями
Размер потока : 1,25 Гбайт (20%)
Язык : English
Default : Нет
Forced : Нет

Текст
Идентификатор : 4
Формат : UTF-8
Идентификатор кодека : S_TEXT/UTF8
Идентификатор кодека/Информация : UTF-8 Plain Text
Заголовок : Full
Язык : English
Default : Нет
Forced : Нет

Меню
00:00:00.000 : en:Chapter 01
00:04:54.877 : en:Chapter 02
00:11:12.213 : en:Chapter 03
00:17:51.070 : en:Chapter 04
00:29:42.363 : en:Chapter 05
00:36:24.724 : en:Chapter 06
00:43:08.836 : en:Chapter 07
00:49:09.863 : en:Chapter 08
00:57:52.594 : en:Chapter 09
01:06:12.218 : en:Chapter 10
01:12:45.611 : en:Chapter 11
01:19:45.071 : en:Chapter 12
01:30:14.742 : en:Chapter 13
01:36:53.724 : en:Chapter 14
01:41:59.446 : en:Chapter 15
01:48:39.221 : en:Chapter 16
   
Торрент: Зарегистрирован [14 окт 2014, 19:54] За каждые 2 ГБ. аплоада (сидирования) этого торрента начисляется бонус: 0.001 Скачать торрент
Скачать торрент
О MediaGet
[ Размер 16.03 КБ / Просмотров 224 ]

Статус:
 
Приватный: Нет (DHT включён)
Размер: 6.16 ГБ (6 617 573 197 байт)
   
Аватара пользователя
Serial R.G.
Serial R.G.
 
Раздал: 2.82 ТБ
Скачал: 677.38 ГБ
Ратио: 5.302
Сообщения: 256
Фото: 1
Зарегистрирован: 10 сен 2012, 21:57
ТегиИзбави, нас, от, лукавого, Deliver, Us, from, Evil

Вернуться в Зарубежные фильмы (Rip's)

Кто сейчас на конференции

Зарегистрированные пользователи: bigcatwar, ванюшка

Ресурс не предоставляет электронные версии произведений, а занимается лишь коллекционированием и каталогизацией ссылок, присылаемых и публикуемых на форуме нашими читателями. Если вы являетесь правообладателем какого-либо представленного материала и не желаете чтобы ссылка на него находилась в нашем каталоге, свяжитесь с нами и мы незамедлительно удалим её. Файлы для обмена на трекере предоставлены пользователями сайта, и администрация не несёт ответственности за их содержание. Просьба не заливать файлы, защищенные авторскими правами, а также файлы нелегального содержания!
cron