Фрэнк / Frank (Леонард Абрахамсон) [2014, драма, комедия, детектив, BDRip-AVC, 1080p, Лицензия] скачать торрент

Мировая классика кино, Rip, Рипы, Зарубежные фильмы

Модератор: Модераторы видео

  • Статистика раздачи
Размер: 6.3 ГБ   |  Зарегистрирован: 08 окт 2014, 22:10   |   .torrent скачан: 24 раз
Сидеров: 24  [ 0 байт/сек ]     Личеров: 0  [ 0 байт/сек ]  
Список файлов : Кто скачал : Раздают : Скачивают : Кто благодарил : История : Не раздающие : Запрашивали сидеров : Внешние трекеры 
  

Фрэнк / Frank (Леонард Абрахамсон) [2014, драма, комедия, детектив, BDRip-AVC, 1080p, Лицензия]

Сообщение 22alias11 » 08 окт 2014, 22:12

Фрэнк / Frank

«On May 9, take off the mask»



Название:Фрэнк
Оригинальное название:Frank
Год выпуска: 2014
Производство: Великобритания, Ирландия / © 2013 EP Frank Limited, Channel Four Television Corporation and the British Film Institute
Жанр: драма, Комедия, детектив
Режиссер: Леонард Абрахамсон
В ролях: Донал Глисон, Мэгги Джилленхол, Скут МакНэйри, Майкл Фассбендер, Мойра Брукер, Пол Баттерворф, Фил Кингстон, Билли Трэйнор, Шэйн О’Брайэн, Франсуа Сивиль


Описание:
The Freshies - так называлась группа, существовавшая в Британии в 70-х годах. Фрэнк Сайдботтом - выдающийся комик и певец был ее фронтменом. Стоит сказать, что он был тем еще уникумом: Фрэнк любил эпатировать публику. Нацепить на себя голову куклы-исполина во время концерта и не только - это в его стиле. Авторы киноленты решили не снимать биографию музыканта, любившего заявить о себе во весь голос. Они позаимствовали у Сайдботтома необычный имидж и превратили его в американца. Они выдумали из ряда вон выходящую историю - безумную с веселой музыкой. Начало истории: в группу приходит новичок по имени Джон. Он подбивает музыкантов на то, что изменить старому-доброму инди-року и податься в коммерческую попсу. Но может ли такое предложение понравиться Фрэнку..?

Техданные:
Качество: BDRip (1080p)
Видео: MPEG-4 AVC/H.264, 1920x816 (2.35:1), 8 400 kbps, 23.976 fps
Аудио:
  1. Русский/Профессиональный (многоголосый закадровый), AAC / 2.0 / 136 Kbps / 48.0 KHz
  2. Русский/Профессиональный (многоголосый закадровый), AC3 / 5.1 / 384 Kbps / 48.0 KHz
  3. Английский/Оригинальный, AAC / 2.0 / 132 Kbps / 48.0 KHz
  4. Английский/Оригинальный, AC3 / 5.1 / 448 Kbps / 48.0 KHz
Продолжительность: 01:35:05
Перевод: Профессиональный (многоголосый закадровый) [Лицензия]
Cубтитры: Русские, Английские
Sort Name: Frank
XID: Apple:vendor_id:2014-506058
Content ID: 910648115
Copyright: © 2013 EP Frank Limited, Channel Four Television Corporation and the British Film Institute
ScreenWriters: Джон Ронсон, Питер Строхан
Producers: Дэвид Баррон, Эд Гуене, Стиви Ли
Director: Леонард Абрахамсон
Cast: Michael Fassbender (Frank), Maggie Gyllenhaal (Clara), Domhnall Gleeson (Jon), Scoot McNairy (Don), Hayley Derryberry
Rating: 15
Long Deion: В центре истории окажется молодой парень, жаждущий стать музыкантом и попадающий в состав эксцентричной поп-группы, возглавляет которую таинственный и загадочный Фрэнк.
Deion: В центре истории окажется молодой парень, жаждущий стать музыкантом и попадающий в состав эксцентричной поп-группы, возглавляет которую таинственный и загадочный Фрэнк.
Release Date: 2014-05-09T07:00:00Z
Genre: Comedy
Artist: Lenny Abrahamson
Name: Фрэнк
Comments: «On May 9, take off the mask»
General
Complete name : C:DOWNLOADFrank.2014.BDRip.1080p.P.m4v
Format : MPEG-4
Codec ID : M4V
File size : 6.30 GiB
Duration : 1h 35mn
Overall bit rate mode : Variable
Overall bit rate : 9 478 Kbps
Movie name : Фрэнк
Performer : Lenny Abrahamson
Genre : Comedy
ContentType : Short Film
Deion : В центре истории окажется молодой парень, жаждущий стать музыкантом и попадающий в состав эксцентричной поп-группы, возглавляет которую таинственный и загадочный Фрэнк.
Recorded date : UTC 2014-05-09 07:00:00
Encoded date : UTC 2014-10-08 17:43:39
Tagged date : UTC 2014-10-08 17:54:28
Copyright : © 2013 EP Frank Limited, Channel Four Television Corporation and the British Film Institute
Cover : Yes
Comment : «On May 9, take off the mask»
ContentRating : uk-movie|15|350|

Title/Sort : Frank
LongDeion : В центре истории окажется молодой парень, жаждущий стать музыкантом и попадающий в состав эксцентричной поп-группы, возглавляет которую таинственный и загадочный Фрэнк.
AppleStoreCatalogID : 910648115
Vendor : Apple:vendor_id:2014-506058

Video
ID : 1
Format : AVC
Format/Info : Advanced Video Codec
Format profile : [email protected]
Format settings, CABAC : Yes
Format settings, ReFrames : 4 frames
Codec ID : avc1
Codec ID/Info : Advanced Video Coding
Duration : 1h 35mn
Bit rate : 8 362 Kbps
Maximum bit rate : 28.8 Mbps
Width : 1 920 pixels
Height : 816 pixels
Display aspect ratio : 2.35:1
Frame rate mode : Constant
Frame rate : 23.976 fps
Color space : YUV
Chroma subsampling : 4:2:0
Bit depth : 8 bits
Scan type : Progressive
Bits/(Pixel*Frame) : 0.223
Stream size : 5.55 GiB (88%)
Title : Frank.2014
Language : English
Encoded date : UTC 2014-10-08 17:43:39
Tagged date : UTC 2014-10-08 17:44:43
Color primaries : BT.709
Transfer characteristics : BT.709
Matrix coefficients : BT.709

Audio #1
ID : 2
Format : AAC
Format/Info : Advanced Audio Codec
Format profile : LC
Codec ID : 40
Duration : 1h 35mn
Bit rate mode : Variable
Bit rate : 137 Kbps
Maximum bit rate : 198 Kbps
Channel(s) : 2 channels
Channel positions : Front: L R
Sampling rate : 48.0 KHz
Compression mode : Lossy
Stream size : 93.4 MiB (1%)
Title : MVO
Language : Russian
Encoded date : UTC 2014-10-08 17:44:31
Tagged date : UTC 2014-10-08 17:44:43

Audio #2
ID : 3
Format : AC-3
Format/Info : Audio Coding 3
Mode extension : CM (complete main)
Format settings, Endianness : Big
Codec ID : ac-3
Duration : 1h 35mn
Bit rate mode : Constant
Bit rate : 384 Kbps
Channel(s) : 6 channels
Channel positions : Front: L C R, Side: L R, LFE
Sampling rate : 48.0 KHz
Bit depth : 16 bits
Compression mode : Lossy
Stream size : 261 MiB (4%)
Title : MVO
Language : Russian
Encoded date : UTC 2014-10-08 17:44:34
Tagged date : UTC 2014-10-08 17:44:43

Audio #3
ID : 4
Format : AAC
Format/Info : Advanced Audio Codec
Format profile : LC
Codec ID : 40
Duration : 1h 35mn
Bit rate mode : Variable
Bit rate : 132 Kbps
Maximum bit rate : 191 Kbps
Channel(s) : 2 channels
Channel positions : Front: L R
Sampling rate : 48.0 KHz
Compression mode : Lossy
Stream size : 91.5 MiB (1%)
Title : original
Language : English
Encoded date : UTC 2014-10-08 17:44:37
Tagged date : UTC 2014-10-08 17:44:43

Audio #4
ID : 5
Format : AC-3
Format/Info : Audio Coding 3
Mode extension : CM (complete main)
Format settings, Endianness : Big
Codec ID : ac-3
Duration : 1h 35mn
Bit rate mode : Constant
Bit rate : 448 Kbps
Channel(s) : 6 channels
Channel positions : Front: L C R, Side: L R, LFE
Sampling rate : 48.0 KHz
Bit depth : 16 bits
Compression mode : Lossy
Stream size : 305 MiB (5%)
Title : original
Language : English
Encoded date : UTC 2014-10-08 17:44:40
Tagged date : UTC 2014-10-08 17:44:43

Text #1
ID : 6
Format : Timed Text
Muxing mode : sbtl
Codec ID : tx3g
Duration : 1h 31mn
Bit rate mode : Variable
Bit rate : 96 bps
Stream size : 64.5 KiB (0%)
Language : Russian
Encoded date : UTC 2014-10-08 17:44:43
Tagged date : UTC 2014-10-08 17:44:43

Text #2
ID : 7
Format : Timed Text
Muxing mode : sbtl
Codec ID : tx3g
Duration : 1h 34mn
Bit rate mode : Variable
Bit rate : 58 bps
Stream size : 40.6 KiB (0%)
Language : English
Encoded date : UTC 2014-10-08 17:44:43
Tagged date : UTC 2014-10-08 17:44:43

Menu
ID : 8
Codec ID : text
Duration : 1h 35mn
Encoded date : UTC 2014-10-08 17:45:30
Tagged date : UTC 2014-10-08 17:45:30
Bit rate mode : VBR
x264 [info]: frame I:1228 Avg QP:15.70 size:199688
x264 [info]: frame P:26913 Avg QP:18.27 size: 95726
x264 [info]: frame B:108660 Avg QP:19.04 size: 28917
x264 [info]: consecutive B-frames: 1.8% 1.5% 8.4% 6.5% 10.1% 61.8% 6.0% 0.7% 2.6% 0.6%
x264 [info]: mb I I16..4: 20.7% 57.9% 21.4%
x264 [info]: mb P I16..4: 3.2% 17.1% 2.0% P16..4: 22.7% 31.1% 13.3% 0.0% 0.0% skip:10.7%
x264 [info]: mb B I16..4: 0.3% 1.6% 0.1% B16..8: 34.1% 21.8% 3.4% direct: 6.6% skip:32.0% L0:41.9% L1:41.5% BI:16.7%
x264 [info]: 8x8 transform intra:74.8% inter:39.8%
x264 [info]: coded y,uvDC,uvAC intra: 90.9% 84.9% 72.6% inter: 28.5% 26.4% 12.0%
x264 [info]: i16 v,h,dc,p: 13% 6% 26% 55%
x264 [info]: i8 v,h,dc,ddl,ddr,vr,hd,vl,hu: 10% 10% 18% 9% 10% 10% 10% 10% 12%
x264 [info]: i4 v,h,dc,ddl,ddr,vr,hd,vl,hu: 11% 9% 13% 9% 13% 12% 12% 10% 11%
x264 [info]: i8c dc,h,v,p: 53% 20% 17% 11%
x264 [info]: Weighted P-Frames: Y:1.5% UV:0.8%
x264 [info]: ref P L0: 59.7% 8.7% 20.5% 10.8% 0.3% 0.0%
x264 [info]: ref B L0: 84.2% 11.8% 4.0%
x264 [info]: ref B L1: 93.9% 6.1%
x264 [info]: kb/s:8361.53
   
Торрент: Зарегистрирован [08 окт 2014, 22:10] За каждые 2 ГБ. аплоада (сидирования) этого торрента начисляется бонус: 0.001 Скачать торрент
Скачать торрент
О MediaGet
[ Размер 16.19 КБ / Просмотров 17 ]

Статус:
 
Приватный: Нет (DHT включён)
Размер: 6.3 ГБ (6 760 183 598 байт)
   
Аватара пользователя
Serial R.G.
Serial R.G.
 
Раздал: 2.82 ТБ
Скачал: 677.38 ГБ
Ратио: 5.302
Сообщения: 256
Фото: 1
Зарегистрирован: 10 сен 2012, 21:57
ТегиФрэнк, Frank

  • Похожие торренты
    Ответы
    Просмотры
    Последнее сообщение

Вернуться в Зарубежные фильмы (Rip's)

Кто сейчас на конференции

Зарегистрированные пользователи: божик

Ресурс не предоставляет электронные версии произведений, а занимается лишь коллекционированием и каталогизацией ссылок, присылаемых и публикуемых на форуме нашими читателями. Если вы являетесь правообладателем какого-либо представленного материала и не желаете чтобы ссылка на него находилась в нашем каталоге, свяжитесь с нами и мы незамедлительно удалим её. Файлы для обмена на трекере предоставлены пользователями сайта, и администрация не несёт ответственности за их содержание. Просьба не заливать файлы, защищенные авторскими правами, а также файлы нелегального содержания!
cron