Фотообои купить в Екб

Домашнее видео / Sex Tape (Джейк Кэздан/Jake Kasdan) [2014, комедия, BDRip, 720p | Чистый звук] скачать торрент

Мировая классика кино, Rip, Рипы, Зарубежные фильмы

Модератор: Модераторы видео

  • Статистика раздачи
Размер: 4.62 ГБ   |  Зарегистрирован: 06 окт 2014, 18:38   |   .torrent скачан: 68 раз
Сидеров: 717  [ 0 байт/сек ]     Личеров: 10  [ 0 байт/сек ]  
Список файлов : Кто скачал : Раздают : Скачивают : Кто благодарил : История : Не раздающие : Запрашивали сидеров : Внешние трекеры 
  

Домашнее видео / Sex Tape (Джейк Кэздан/Jake Kasdan) [2014, комедия, BDRip, 720p | Чистый звук]

Сообщение 22alias11 » 06 окт 2014, 18:39

Домашнее видео / Sex Tape




Информация о фильме
Название: Домашнее видео
Оригинальное название: Sex Tape
Год выхода: 2014
Выпущено: США / Escape Artists, LStar Capital, Media Rights Capital Sony Pictures Entertainment (SPE)
Жанр: Комедия
Режиссер: Джейк Кэздан
В ролях: Кэмерон Диаз, Джейсон Сигел, Роб Кордри, Элли Кемпер, Роб Лоу, Нат Факсон,, Нэнси Ленехан, Жизелль Эйзенберг, Харрисон Хольцер, Себастьян Хеджес Томас


О фильме: Семейная пара, оставшись на одну ночь без детей, решает повеселиться и записать пикантное видео со своим участием. На следующее утро они обнаруживают, что видео видели не только они…

Техданные
Формат: MKV
Качество: BDRip 720p [CHD]
Видео: 5095 Kb/s, 1280x694
Аудио: Russian: AC3, 384 Kb/s (2 ch) / English: DTS, 1510 kb/s (6 ch)
Продолжительность: 01:34:34
Озвучивание: Дублированное [Чистый звук] Официальный

Format : Matroska
Format version : Version 4 / Version 2
File size : 4.62 GiB
Duration : 1h 34mn
Overall bit rate : 6 989 Kbps
Encoded date : UTC 2014-10-06 14:38:49
Writing application : mkvmerge v6.1.0 ('Old Devil') built on Mar 4 2013 09:10:42
Writing library : libebml v1.3.0 + libmatroska v1.4.0
DURATION : 01:34:34.678000000
NUMBER_OF_FRAMES : 532001
NUMBER_OF_BYTES : 1070386012
_STATISTICS_WRITING_APP : mkvmerge v7.1.0 ('Good Love') 64bit built on Jul 27 2014 13:06:55
_STATISTICS_WRITING_DATE_UTC : 2014-10-03 11:22:52
_STATISTICS_TAGS : BPS DURATION NUMBER_OF_FRAMES NUMBER_OF_BYTES

Video
ID : 1
Format : AVC
Format/Info : Advanced Video Codec
Format profile : [email protected]
Format settings, CABAC : Yes
Format settings, ReFrames : 9 frames
Codec ID : V_MPEG4/ISO/AVC
Duration : 1h 34mn
Bit rate : 5 095 Kbps
Width : 1 280 pixels
Height : 694 pixels
Display aspect ratio : 1.85:1
Frame rate : 23.976 fps
Color space : YUV
Chroma subsampling : 4:2:0
Bit depth : 8 bits
Scan type : Progressive
Bits/(Pixel*Frame) : 0.239
Stream size : 3.27 GiB (71%)
Writing library : x264 core 138 r2358 9e941d1
Encoding settings : cabac=1 / ref=9 / deblock=1:-3:-3 / analyse=0x3:0x113 / me=umh / subme=11 / psy=1 / psy_rd=1.10:0.15 / mixed_ref=1 / me_range=32 / chroma_me=1 / trellis=2 / 8x8dct=1 / cqm=0 / deadzone=21,11 / fast_pskip=0 / chroma_qp_offset=-2 / threads=18 / lookahead_threads=1 / sliced_threads=0 / nr=0 / decimate=1 / interlaced=0 / bluray_compat=0 / constrained_intra=0 / bframes=6 / b_pyramid=2 / b_adapt=2 / b_bias=0 / direct=3 / weightb=1 / open_gop=0 / weightp=2 / keyint=250 / keyint_min=23 / scenecut=40 / intra_refresh=0 / rc_lookahead=40 / rc=2pass / mbtree=0 / bitrate=5095 / ratetol=1.0 / qcomp=0.60 / qpmin=0 / qpmax=69 / qpstep=4 / cplxblur=20.0 / qblur=0.5 / vbv_maxrate=40000 / vbv_bufsize=30000 / nal_hrd=none / ip_ratio=1.40 / pb_ratio=1.30 / aq=1:0.80
Language : English
Default : Yes
Forced : No
DURATION : 01:34:34.706000000
NUMBER_OF_FRAMES : 136057
NUMBER_OF_BYTES : 3613254768
_STATISTICS_WRITING_APP : mkvmerge v7.1.0 ('Good Love') 64bit built on Jul 27 2014 13:06:55
_STATISTICS_WRITING_DATE_UTC : 2014-10-03 11:22:52
_STATISTICS_TAGS : BPS DURATION NUMBER_OF_FRAMES NUMBER_OF_BYTES

Audio #1
ID : 2
Format : AC-3
Format/Info : Audio Coding 3
Mode extension : CM (complete main)
Format settings, Endianness : Big
Codec ID : A_AC3
Duration : 1h 34mn
Bit rate mode : Constant
Bit rate : 384 Kbps
Channel(s) : 2 channels
Channel positions : Front: L R
Sampling rate : 48.0 KHz
Bit depth : 16 bits
Compression mode : Lossy
Stream size : 260 MiB (5%)
Language : Russian
Default : No
Forced : No

Audio #2
ID : 3
Format : DTS
Format/Info : Digital Theater Systems
Codec ID : A_DTS
Duration : 1h 34mn
Bit rate mode : Constant
Bit rate : 1 510 Kbps
Channel(s) : 6 channels
Channel positions : Front: L C R, Side: L R, LFE
Sampling rate : 48.0 KHz
Bit depth : 24 bits
Compression mode : Lossy
Stream size : 1 021 MiB (22%)
Language : English
Default : No
Forced : No

Menu
00:00:00.000 : en:00:00:00.000
00:03:53.483 : en:00:03:53.483
00:09:34.073 : en:00:09:34.073
00:14:36.626 : en:00:14:36.626
00:20:05.287 : en:00:20:05.287
00:27:21.014 : en:00:27:21.014
00:34:03.667 : en:00:34:03.667
00:40:19.167 : en:00:40:19.167
00:45:21.636 : en:00:45:21.636
00:50:42.706 : en:00:50:42.706
00:57:41.541 : en:00:57:41.541
01:05:34.556 : en:01:05:34.556
01:11:51.682 : en:01:11:51.682
01:20:06.510 : en:01:20:06.510
01:25:16.737 : en:01:25:16.737
01:29:47.299 : en:01:29:47.299
   
Торрент: Зарегистрирован [06 окт 2014, 18:38] Серебряная раздача - Скачанное не учитывается на 75% Скачать торрент
Скачать торрент
О MediaGet
[ Размер 12.14 КБ / Просмотров 143 ]

Статус:
 
Приватный: Нет (DHT включён)
Размер: 4.62 ГБ (4 957 894 454 байт)
   
Аватара пользователя
Serial R.G.
Serial R.G.
 
Раздал: 2.82 ТБ
Скачал: 677.38 ГБ
Ратио: 5.302
Сообщения: 256
Фото: 1
Зарегистрирован: 10 сен 2012, 21:57
ТегиДомашнее, видео, Sex, Tape,

  • Похожие торренты
    Ответы
    Просмотры
    Последнее сообщение

Вернуться в Зарубежные фильмы (Rip's)

Кто сейчас на конференции

Зарегистрированные пользователи: нет зарегистрированных пользователей

cron
Ресурс не предоставляет электронные версии произведений, а занимается лишь коллекционированием и каталогизацией ссылок, присылаемых и публикуемых на форуме нашими читателями. Если вы являетесь правообладателем какого-либо представленного материала и не желаете чтобы ссылка на него находилась в нашем каталоге, свяжитесь с нами и мы незамедлительно удалим её. Файлы для обмена на трекере предоставлены пользователями сайта, и администрация не несёт ответственности за их содержание. Просьба не заливать файлы, защищенные авторскими правами, а также файлы нелегального содержания!
cron