Моя девушка – монстр / Colossal (2016) WEB-DL 1080р | iTunes | ATV скачать торрент

Киноновинки, новинки кинопроката, горячие новинки

Модератор: Модераторы видео

  • Статистика раздачи
Размер: 3.73 ГБ   |  Зарегистрирован: 03 июн 2017, 11:51   |   .torrent скачан: 1996 раз
Сидеров: 589  [ 0 байт/сек ]     Личеров: 70  [ 0 байт/сек ]  
Список файлов : Кто скачал : Раздают : Скачивают : Кто благодарил : История : Не раздающие : Запрашивали сидеров : Внешние трекеры 
  

Моя девушка – монстр / Colossal (2016) WEB-DL 1080р | iTunes | ATV

Сообщение Админ » 03 июн 2017, 11:51

Моя девушка – монстр / Colossal

Страна: Канада Испания
Производство: Brightlight Pictures Inc., Route One Films, Toy Fight Productions
Год выпуска: 2016
Жанр: фантастика, триллер, Комедия, боевик
Продолжительность: 01:44:46

Режиссер: Начо Вигалондо
Авторы сценария: Начо Вигалондо

В ролях: Энн Хэтэуэй, Джейсон Судейкис, Остин Стоуэлл, Тим Блейк Нельсон, Дэн Стивенс, Ханна Черами, Нэйтан Эллисон, Сара Сурх

Описание: Гигантский монстр нападает на Сеул, разрушая всё на своём пути. В Нью-Йорке потерявшая работу и бойфренда Глория понимает, что каким-то образом связана с этими фантастическими событиями...



Перевод: Профессиональный (полное дублирование) | iTunes
Субтитры: нет


Качество: WEB-DL 1080р
Формат: M4V
Видео кодек: AVC
Аудио кодек: AAC | АС3
Видео №1: 1920x804 (2.40:1), 25.000 fps, MPEG-4 AVC ~4 550 kbps avg
Видео №2: 640x268 (2.40:1), 0.003 fps, MPEG-4 AVC ~1 029 bps avg

Аудио №1: 48.0 kHz, Advanced Audio Codec LC, 2/0 (L,R) ch, ~157 kbps | RUS
Аудио №2: 48.0 kHz, AC3 Dolby Digital, 3/2 (L,C,R,l,r) + LFE ch, ~384 kbps | RUS

Дата премьеры (мир): 9 сентября 2016
Дата премьеры (РФ): 27 апреля 2017, «Экспонента»



General
Complete name : Colossal.WEB-DL.Rus.1080p.m4v
Format : MPEG-4
Codec ID : M4V
File size : 3.73 GiB
Duration : 1h 44mn
Overall bit rate mode : Variable
Overall bit rate : 5 099 Kbps
Recorded date : UTC 2016-09-09 08:00:00
Encoded date : UTC 2017-05-27 09:41:47
Tagged date : UTC 2017-05-27 09:44:52
Copyright : © 2017 X-Media
ppleStoreCatalogID : 1238315066
Vendor : Apple:vendor_id:2016-938513
ContentRating : ru-movie|16+|375|

Video #1
ID : 1
Format : AVC
Format/Info : Advanced Video Codec
Format profile : [email protected]
Format settings, CABAC : Yes
Format settings, ReFrames : 5 frames
Codec ID : avc1
Codec ID/Info : Advanced Video Coding
Duration : 1h 44mn
Bit rate : 4 550 Kbps
Width : 1 920 pixels
Height : 804 pixels
Display aspect ratio : 2.40:1
Frame rate mode : Constant
Frame rate : 25.000 fps
Color space : YUV
Chroma subsampling : 4:2:0
Bit depth : 8 bits
Scan type : Progressive
Bits/(Pixel*Frame) : 0.118
Stream size : 3.33 GiB (89%)
Title : Main Program
Language : English
Encoded date : UTC 2017-05-27 09:41:47
Tagged date : UTC 2017-05-27 09:43:22
Color range : Limited
Color primaries : BT.709
Transfer characteristics : BT.709
Matrix coefficients : BT.709

Video #2
ID : 5
Format : JPEG
Codec ID : jpeg
Duration : 1h 44mn
Bit rate mode : Variable
Bit rate : 1 029 bps
Width : 640 pixels
Height : 268 pixels
Display aspect ratio : 2.40:1
Frame rate mode : Variable
Frame rate : 0.003 fps
Minimum frame rate : 0.001 fps
Maximum frame rate : 0.003 fps
Color space : YUV
Chroma subsampling : 4:2:0
Bit depth : 8 bits
Compression mode : Lossy
Bits/(Pixel*Frame) : 2.000
Stream size : 670 KiB (0%)
Title : Chapter Images
Language : English
Encoded date : UTC 2017-05-27 09:43:27
Tagged date : UTC 2017-05-27 09:43:28

Audio #1
ID : 2
Format : AAC
Format/Info : Advanced Audio Codec
Format profile : LC
Codec ID : 40
Duration : 1h 44mn
Bit rate mode : Variable
Bit rate : 157 Kbps
Maximum bit rate : 244 Kbps
Channel(s) : 2 channels
Channel positions : Front: L R
Sampling rate : 48.0 KHz
Compression mode : Lossy
Stream size : 118 MiB (3%)
Title : Russian Stereo
Language : Russian
Encoded date : UTC 2017-05-27 09:41:47
Tagged date : UTC 2017-05-27 09:41:51

Audio #2
ID : 3
Format : AC-3
Format/Info : Audio Coding 3
Mode extension : CM (complete main)
Format settings, Endianness : Big
Codec ID : ac-3
Duration : 1h 44mn
Bit rate mode : Constant
Bit rate : 384 Kbps
Channel(s) : 6 channels
Channel positions : Front: L C R, Side: L R, LFE
Sampling rate : 48.0 KHz
Bit depth : 16 bits
Compression mode : Lossy
Stream size : 288 MiB (8%)
Title : Russian DD 5.1
Language : Russian
Encoded date : UTC 2017-05-27 09:41:47
Tagged date : UTC 2017-05-27 09:43:22

Menu #1
00:00:00.000 : 1
00:05:33.600 : 2
00:10:24.040 : 3
00:15:57.400 : 4
00:21:48.400 : 5
00:27:46.320 : 6
00:35:28.720 : 7
00:40:45.640 : 8
00:46:31.840 : 9
00:53:56.840 : 10
01:00:48.720 : 11
01:07:11.760 : 12
01:13:40.240 : 13
01:19:33.520 : 14
01:25:36.040 : 15
01:31:08.240 : 16

Menu #2
ID : 4
Codec ID : text
Duration : 1h 44mn
Language : English
Encoded date : UTC 2017-05-27 09:43:22
Tagged date : UTC 2017-05-27 09:43:22
00:00:00.000 : 1
00:05:33.600 : 2
00:10:24.040 : 3
00:15:57.400 : 4
00:21:48.400 : 5
00:27:46.320 : 6
00:35:28.720 : 7
00:40:45.640 : 8
00:46:31.840 : 9
00:53:56.840 : 10
01:00:48.720 : 11
01:07:11.760 : 12
01:13:40.240 : 13
01:19:33.520 : 14
01:25:36.040 : 15
01:31:08.240 : 16
Bit rate mode : VBR



Дополнительная информация: релиз подготовлен для просмотра на Apple TV, iPad, iPhone, iPod Touch.
Для просмотра данного релиза на компьютере с ОС Windows рекомендуется использовать VLC media player
   
Торрент: Зарегистрирован [03 июн 2017, 11:51] Скачать торрент
Скачать торрент
О MediaGet
[ Размер 38.29 КБ / Просмотров 221 ]

Статус:
 
Приватный: Нет (DHT включён)
Размер: 3.73 ГБ (4 006 426 230 байт)
   
Аватара пользователя

Администратор
Администратор
 
Раздал: 2.33 ПБ
Скачал: 1.02 ПБ
Ратио: 2.281
Сообщения: 3719
Зарегистрирован: 07 май 2010, 17:29
Medals: 1
Лучший релиз за месяц (1)
  • Личное сообщение
  • ICQ

Вернуться в Фильмы 2016 (новинки)

Кто сейчас на конференции

Зарегистрированные пользователи: fas28

Ресурс не предоставляет электронные версии произведений, а занимается лишь коллекционированием и каталогизацией ссылок, присылаемых и публикуемых на форуме нашими читателями. Если вы являетесь правообладателем какого-либо представленного материала и не желаете чтобы ссылка на него находилась в нашем каталоге, свяжитесь с нами и мы незамедлительно удалим её. Файлы для обмена на трекере предоставлены пользователями сайта, и администрация не несёт ответственности за их содержание. Просьба не заливать файлы, защищенные авторскими правами, а также файлы нелегального содержания!
cron