Рыба-мечта (2016) WEB-DLRip-AVC от OlLanDGroup | iTunes скачать торрент

Киноновинки, новинки кинопроката, горячие новинки

Модератор: Модераторы видео

  • Статистика раздачи
Размер: 1.26 ГБ   |  Зарегистрирован: 25 май 2017, 08:08   |   .torrent скачан: 454 раз
Сидеров: 108  [ 0 байт/сек ]     Личеров: 11  [ 0 байт/сек ]  
Список файлов : Кто скачал : Раздают : Скачивают : Кто благодарил : История : Не раздающие : Запрашивали сидеров : Внешние трекеры 
  

Рыба-мечта (2016) WEB-DLRip-AVC от OlLanDGroup | iTunes

Сообщение Админ » 25 май 2017, 08:08

Рыба-мечта
«Сказка для взрослых»



Год выпуска: 2016
Страна: Россия, Эстония
Производство: Vita Aktiva, ПРОвзгляд
Жанр: Комедия, мелодрама, триллер

Режиссёр: Антон Бильжо
В ролях: Владимир Мишуков, Северия Янушаускайте, Максим Виторган, Андрей Бильжо

Перевод: Не требуется
Субтитры: Нет

Описание: Роман, скромный 39-летний корректор, приезжает в эстонский городок Нарва-Йыэсуу для работы над книгой профессора Полянского "Рыбы Балтийского моря", написанную им в этих местах. Эта работа представлялась Роману важнейшим делом его жизни и он принялся за неё со всей серьёзностью, не отвлекаясь на курортные соблазны. Однако всё сложилось не так, как планировалось. Однажды, купаясь в море, он начал тонуть. На отчаянный зов утопающего, будто со дна морского, явилась абсолютно нагая девушка, и, благополучно доставив его к берегу, снова канула в воду. Потрясенный удивительной встречей, Роман потерял покой и забросил работу. Попытки найти свою спасительницу на суше ни к чему не привели. Отчаявшись, он опять бросается в море в надежде на еще одно чудесное спасение...



Качество: WEB-DLRip-AVC
Продолжительность: 01:22:40

Формат: MKV
Видео кодек: MPEG-4 AVC
Аудио кодек: AC3
Видео: 1024x426 (2.40:1), 24,000 fps, x264 ~1797 kbps avg, 0.172 bit/pixel
Аудио: 48 kHz, AC3 Dolby Digital, 3/2 (L,C,R,l,r) + LFE ch, ~384.00 kbps avg | RUS (iTunes)
Дата премьеры (РФ): 22 декабря 2016, «ПРОвзгляд»

Релиз от: Rip by:
Общее
Уникальный идентификатор : 238381148602809039456157031607333440640 (0xB3568A0ACA7DE60580ABE0EBA31E4C80)
Полное имя : D:Ryba-Mechta.2016.WEB-DLRip(AVC).OlLanDGroup.mkv
Формат : Matroska
Версия формата : Version 2
Размер файла : 1,26 Гбайт
Продолжительность : 1 ч. 22 м.
Общий поток : 2181 Кбит/сек
Название фильма : Ryba-Mechta.2016 #TorpedoUK#
Дата кодирования : UTC 2017-05-21 17:18:01
Программа кодирования : mkvmerge v7.8.0 ('River Man') 32bit built on Apr 3 2015 12:11:22
Библиотека кодирования : libebml v1.3.1 + libmatroska v1.4.2

Видео
Идентификатор : 1
Формат : AVC
Формат/Информация : Advanced Video Codec
Профиль формата : [email protected]
Параметр CABAC формата : Да
Параметр ReFrames формата : 10 кадров
Идентификатор кодека : V_MPEG4/ISO/AVC
Продолжительность : 1 ч. 22 м.
Битрейт : 1797 Кбит/сек
Ширина : 1024 пикселя
Высота : 426 пикселей
Соотношение сторон : 2,40:1
Режим частоты кадров : Постоянный
Частота кадров : 24,000 кадра/сек
Цветовое пространство : YUV
Субдискретизация насыщенности : 4:2:0
Битовая глубина : 8 бит
Тип развёртки : Прогрессивная
Бит/(Пиксели*Кадры) : 0.172
Размер потока : 1,01 Гбайт (80%)
Библиотека кодирования : x264 core 146 r2538 121396c
Настройки программы : cabac=1 / ref=10 / deblock=1:-3:-3 / analyse=0x3:0x133 / me=umh / subme=11 / psy=1 / psy_rd=1.00:0.07 / mixed_ref=1 / me_range=48 / chroma_me=1 / trellis=2 / 8x8dct=1 / cqm=0 / deadzone=21,11 / fast_pskip=0 / chroma_qp_offset=-3 / threads=6 / lookahead_threads=1 / sliced_threads=0 / nr=0 / decimate=0 / interlaced=0 / bluray_compat=0 / constrained_intra=0 / bframes=10 / b_pyramid=2 / b_adapt=2 / b_bias=0 / direct=3 / weightb=1 / open_gop=0 / weightp=2 / keyint=240 / keyint_min=24 / scenecut=40 / intra_refresh=0 / rc_lookahead=40 / rc=2pass / mbtree=0 / bitrate=1797 / ratetol=1.0 / qcomp=0.60 / qpmin=0 / qpmax=69 / qpstep=4 / cplxblur=20.0 / qblur=0.5 / vbv_maxrate=50000 / vbv_bufsize=62500 / nal_hrd=none / filler=0 / ip_ratio=1.40 / pb_ratio=1.30 / aq=1:1.00
Язык : English
Default : Да
Forced : Нет

Аудио
Идентификатор : 2
Формат : AC-3
Формат/Информация : Audio Coding 3
Расширение режима : CM (complete main)
Параметр Endianness формата : Big
Идентификатор кодека : A_AC3
Продолжительность : 1 ч. 22 м.
Вид битрейта : Постоянный
Битрейт : 384 Кбит/сек
Каналы : 6 каналов
Расположение каналов : Front: L C R, Side: L R, LFE
Частота : 48,0 КГц
Частота кадров : 31,250 кадров/сек (1536 spf)
Битовая глубина : 16 бит
Метод сжатия : С потерями
Размер потока : 227 Мбайт (18%)
Заголовок : iTunes
Язык : Russian
Default : Да
Forced : Нет

Меню
00:00:00.000 : en:1
00:13:19.549 : en:2
00:26:38.764 : en:3
00:42:19.287 : en:4
00:53:05.975 : en:5
01:06:49.173 : en:6
01:20:18.815 : en:7




   
Торрент: Зарегистрирован [25 май 2017, 08:08] Скачать торрент
Скачать торрент
О MediaGet
[ Размер 13.56 КБ / Просмотров 133 ]

Статус:
 
Приватный: Нет (DHT включён)
Размер: 1.26 ГБ (1 352 196 537 байт)
   
Аватара пользователя

Администратор
Администратор
 
Раздал: 2.33 ПБ
Скачал: 1.02 ПБ
Ратио: 2.281
Сообщения: 3719
Зарегистрирован: 07 май 2010, 17:29
Medals: 1
Лучший релиз за месяц (1)
  • Личное сообщение
  • ICQ

  • Похожие торренты
    Ответы
    Просмотры
    Последнее сообщение

Вернуться в Фильмы 2016 (новинки)

Кто сейчас на конференции

Зарегистрированные пользователи: fas28

cron
Ресурс не предоставляет электронные версии произведений, а занимается лишь коллекционированием и каталогизацией ссылок, присылаемых и публикуемых на форуме нашими читателями. Если вы являетесь правообладателем какого-либо представленного материала и не желаете чтобы ссылка на него находилась в нашем каталоге, свяжитесь с нами и мы незамедлительно удалим её. Файлы для обмена на трекере предоставлены пользователями сайта, и администрация не несёт ответственности за их содержание. Просьба не заливать файлы, защищенные авторскими правами, а также файлы нелегального содержания!
cron