Послесвадебный разгром / A Few Less Men (2016) WEB-DLRip-AVC от OlLanDGroup | iTunes скачать торрент

Киноновинки, новинки кинопроката, горячие новинки

Модератор: Модераторы видео

  • Статистика раздачи
Размер: 1.53 ГБ   |  Зарегистрирован: 25 май 2017, 08:07   |   .torrent скачан: 2311 раз
Сидеров: 287  [ 0 байт/сек ]     Личеров: 16  [ 0 байт/сек ]  
Список файлов : Кто скачал : Раздают : Скачивают : Кто благодарил : История : Не раздающие : Запрашивали сидеров : Внешние трекеры 
  

Послесвадебный разгром / A Few Less Men (2016) WEB-DLRip-AVC от OlLanDGroup | iTunes

Сообщение Админ » 25 май 2017, 08:07

Послесвадебный разгром / A Few Less Men
«Убойная поездочка!»



Год выпуска: 2016
Страна: Австралия
Производство: Gorean Films
Жанр: Комедия

Режиссёр: Марк Лампрелл
В ролях: Дакре Монтгомери, Завьер Сэмюэл, Крис Маршалл, Райан Корр, Кевин Бишоп, Саша Хорлер, Линетт Каррен, Дебора Мэйлман, Хлоя Херст, Шэйн Джейкобсон

Перевод: Дублированный | iTunes
Субтитры: Нет

Описание: Продолжение похождений бедовых друзей-англичан в Австралии. На сей раз незадачливой троице Дэвиду, Тому и Грэму предстоит через всю страну перевозить гроб с покойным приятелем после того, как их самолет делает непредвиденную высадку в глухой глубинке.



Качество: WEB-DLRip-AVC
Продолжительность: 01:28:12

Формат: MKV
Видео кодек: MPEG-4 AVC
Аудио кодек: AC3
Видео: 1024x428 (2.40:1), 25,000 fps, x264 ~2096 kbps avg, 0.191 bit/pixel
Аудио: 48 kHz, AC3 Dolby Digital, 3/2 (L,C,R,l,r) + LFE ch, ~384.00 kbps avg | RUS (iTunes)
Дата премьеры (мир): 9 марта 2017
Дата премьеры (РФ): 30 марта 2017, «Вольга»

Релиз от: Rip by:
Общее
Уникальный идентификатор : 219675900455984768619725345004740132663 (0xA5440A1B05EF69949E842EAC21EFBF37)
Полное имя : D:A.Few.Less.Men.2017.WEB-DLRip(AVC).OlLanDGroup.mkv
Формат : Matroska
Версия формата : Version 2
Размер файла : 1,53 Гбайт
Продолжительность : 1 ч. 28 м.
Общий поток : 2482 Кбит/сек
Название фильма : A.Few.Less.Men.2017 #TorpedoUK#
Дата кодирования : UTC 2017-05-19 14:02:06
Программа кодирования : mkvmerge v7.8.0 ('River Man') 32bit built on Apr 3 2015 12:11:22
Библиотека кодирования : libebml v1.3.1 + libmatroska v1.4.2

Видео
Идентификатор : 1
Формат : AVC
Формат/Информация : Advanced Video Codec
Профиль формата : [email protected]
Параметр CABAC формата : Да
Параметр ReFrames формата : 10 кадров
Идентификатор кодека : V_MPEG4/ISO/AVC
Продолжительность : 1 ч. 28 м.
Битрейт : 2096 Кбит/сек
Ширина : 1024 пикселя
Высота : 428 пикселей
Соотношение сторон : 2,40:1
Режим частоты кадров : Постоянный
Частота кадров : 25,000 кадров/сек
Цветовое пространство : YUV
Субдискретизация насыщенности : 4:2:0
Битовая глубина : 8 бит
Тип развёртки : Прогрессивная
Бит/(Пиксели*Кадры) : 0.191
Размер потока : 1,26 Гбайт (83%)
Библиотека кодирования : x264 core 146 r2538 121396c
Настройки программы : cabac=1 / ref=10 / deblock=1:-3:-3 / analyse=0x3:0x133 / me=umh / subme=11 / psy=1 / psy_rd=1.00:0.07 / mixed_ref=1 / me_range=48 / chroma_me=1 / trellis=2 / 8x8dct=1 / cqm=0 / deadzone=21,11 / fast_pskip=0 / chroma_qp_offset=-3 / threads=6 / lookahead_threads=1 / sliced_threads=0 / nr=0 / decimate=0 / interlaced=0 / bluray_compat=0 / constrained_intra=0 / bframes=10 / b_pyramid=2 / b_adapt=2 / b_bias=0 / direct=3 / weightb=1 / open_gop=0 / weightp=2 / keyint=250 / keyint_min=25 / scenecut=40 / intra_refresh=0 / rc_lookahead=40 / rc=2pass / mbtree=0 / bitrate=2096 / ratetol=1.0 / qcomp=0.60 / qpmin=0 / qpmax=69 / qpstep=4 / cplxblur=20.0 / qblur=0.5 / vbv_maxrate=50000 / vbv_bufsize=62500 / nal_hrd=none / filler=0 / ip_ratio=1.40 / pb_ratio=1.30 / aq=1:1.00
Язык : English
Default : Да
Forced : Нет

Аудио
Идентификатор : 2
Формат : AC-3
Формат/Информация : Audio Coding 3
Расширение режима : CM (complete main)
Параметр Endianness формата : Big
Идентификатор кодека : A_AC3
Продолжительность : 1 ч. 28 м.
Вид битрейта : Постоянный
Битрейт : 384 Кбит/сек
Каналы : 6 каналов
Расположение каналов : Front: L C R, Side: L R, LFE
Частота : 48,0 КГц
Частота кадров : 31,250 кадров/сек (1536 spf)
Битовая глубина : 16 бит
Метод сжатия : С потерями
Размер потока : 242 Мбайт (15%)
Заголовок : AC3 5.1 @ 384 kbps - DUB, iTunes
Язык : Russian
Default : Да
Forced : Нет

Меню
00:00:00.000 : en:1
00:08:04.360 : en:2
00:11:31.640 : en:3
00:17:27.640 : en:4
00:23:15.960 : en:5
00:29:42.960 : en:6
00:34:33.600 : en:7
00:38:56.840 : en:8
00:44:03.600 : en:9
00:48:47.480 : en:10
00:53:11.160 : en:11
00:58:13.440 : en:12
01:03:41.960 : en:13
01:09:10.880 : en:14
01:12:49.640 : en:15




   
Торрент: Зарегистрирован [25 май 2017, 08:07] Скачать торрент
Скачать торрент
О MediaGet
[ Размер 16.25 КБ / Просмотров 52 ]

Статус:
 
Приватный: Нет (DHT включён)
Размер: 1.53 ГБ (1 641 752 016 байт)
   
Аватара пользователя

Администратор
Администратор
 
Раздал: 2.33 ПБ
Скачал: 1.02 ПБ
Ратио: 2.281
Сообщения: 3719
Зарегистрирован: 07 май 2010, 17:29
Medals: 1
Лучший релиз за месяц (1)
  • Личное сообщение
  • ICQ

  • Похожие торренты
    Ответы
    Просмотры
    Последнее сообщение

Вернуться в Фильмы 2016 (новинки)

Кто сейчас на конференции

Зарегистрированные пользователи: fas28

cron
Ресурс не предоставляет электронные версии произведений, а занимается лишь коллекционированием и каталогизацией ссылок, присылаемых и публикуемых на форуме нашими читателями. Если вы являетесь правообладателем какого-либо представленного материала и не желаете чтобы ссылка на него находилась в нашем каталоге, свяжитесь с нами и мы незамедлительно удалим её. Файлы для обмена на трекере предоставлены пользователями сайта, и администрация не несёт ответственности за их содержание. Просьба не заливать файлы, защищенные авторскими правами, а также файлы нелегального содержания!
cron