Босс-молокосос / The Boss Baby (2017) WEB-DL 1080p от ExKinoRay | iTunes скачать торрент

Киноновинки, новинки кинопроката, горячие новинки

Модератор: Модераторы видео

  • Статистика раздачи
Размер: 3.6 ГБ   |  Зарегистрирован: 19 май 2017, 20:34   |   .torrent скачан: 105209 раз
Сидеров: 44085  [ 0 байт/сек ]     Личеров: 6231  [ 0 байт/сек ]  
Список файлов : Кто скачал : Раздают : Скачивают : Кто благодарил : История : Не раздающие : Запрашивали сидеров : Внешние трекеры 
  

Босс-молокосос / The Boss Baby (2017) WEB-DL 1080p от ExKinoRay | iTunes

Сообщение Админ » 19 май 2017, 20:34

Информация о фильме
Название: Босс-молокосос
Оригинальное название: The Boss Baby
Год выхода: 2017
Жанр: Мультфильм, приключения, Комедия, семейный, полнометражный
Режиссер: Том МакГрат
В ролях: Майлз Кристофер Бакши, Алек Болдуин, Эрик Белл мл., Стив Бушеми, Джимми Киммел, Лиза Кудроу, Тоби Магуайр, ВивиЭнн Йи

О фильме:
Эта актуальная во все времена история для взрослых и детей рассказывается от лица семилетнего брата новорожденного — фантазера Тима, который ревнует его к родителям. Но главный герой — совсем не простой ребенок, он обладает лидерскими задатками, уже носит деловые костюмы и во всем видит бизнес-задачу


Страна: США
Студия: DreamWorks Animation
Продолжительность: 01:37:53
Перевод: Дублированный | iTunes

Файл
Качество: WEB-DL 1080p
Видео: MPEG-4 AVC, 1916x812, 4491 Kbit/s, 23.976 fps
Звук:
Аудио #01: 48 kHz, AC3, 5.1, 384 Kbps | Дублированный | iTunes | RUS |
Аудио #02: 48 kHz, AC3, 5.1, 384 Kbps | Оригинал | ENG |



General
Unique ID : 250068124809595796395390722174751753007 (0xBC215E74DE146D8EA5A2A8B84BBE432F)
Complete name : C:UsersbattiDesktopThe.Boss.Baby.2017.WEB-DL.1080p.ExKinoRay.mkv
Format : Matroska
Format version : Version 4 / Version 2
File size : 3.60 GiB
Duration : 1 h 37 min
Overall bit rate : 5 259 kb/s
Encoded date : UTC 2017-05-18 19:58:56
Writing application : mkvmerge v11.0.0 ('Alive') 64bit
Writing library : libebml v1.3.4 + libmatroska v1.4.5

Video
ID : 1
Format : AVC
Format/Info : Advanced Video Codec
Format profile : [email protected]
Format settings, CABAC : Yes
Format settings, ReFrames : 5 frames
Codec ID : V_MPEG4/ISO/AVC
Duration : 1 h 37 min
Bit rate : 4 491 kb/s
Width : 1 916 pixels
Height : 812 pixels
Display aspect ratio : 2.35:1
Frame rate mode : Constant
Frame rate : 23.976 FPS
Color space : YUV
Chroma subsampling : 4:2:0
Bit depth : 8 bits
Scan type : Progressive
Bits/(Pixel*Frame) : 0.120
Stream size : 3.07 GiB (85%)
Language : English
Default : Yes
Forced : No
Color range : Limited
Color primaries : BT.709
Transfer characteristics : BT.709
Matrix coefficients : BT.709

Audio #1
ID : 2
Format : AC-3
Format/Info : Audio Coding 3
Format settings, Endianness : Big
Codec ID : A_AC3
Duration : 1 h 37 min
Bit rate mode : Constant
Bit rate : 384 kb/s
Channel(s) : 6 channels
Channel positions : Front: L C R, Side: L R, LFE
Sampling rate : 48.0 kHz
Frame rate : 31.250 FPS (1536 spf)
Bit depth : 16 bits
Compression mode : Lossy
Stream size : 268 MiB (7%)
Title : iTunes
Language : Russian
Service kind : Complete Main
Default : Yes
Forced : No

Audio #2
ID : 3
Format : AC-3
Format/Info : Audio Coding 3
Format settings, Endianness : Big
Codec ID : A_AC3
Duration : 1 h 37 min
Bit rate mode : Constant
Bit rate : 384 kb/s
Channel(s) : 6 channels
Channel positions : Front: L C R, Side: L R, LFE
Sampling rate : 48.0 kHz
Frame rate : 31.250 FPS (1536 spf)
Bit depth : 16 bits
Compression mode : Lossy
Stream size : 268 MiB (7%)
Title : Original
Language : English
Service kind : Complete Main
Default : No
Forced : No

Menu
00:00:00.000 : en:1
00:03:44.891 : en:2
00:08:57.286 : en:3
00:11:44.911 : en:4
00:14:58.562 : en:5
00:19:37.215 : en:6
00:22:51.784 : en:7
00:28:26.243 : en:8
00:30:25.111 : en:9
00:33:44.477 : en:10
00:36:56.252 : en:11
00:39:17.351 : en:12
00:42:34.339 : en:13
00:46:19.605 : en:14
00:51:36.713 : en:15
00:53:24.278 : en:16
00:56:27.711 : en:17
00:59:34.397 : en:18
01:04:02.164 : en:19
01:08:14.749 : en:20
01:11:28.901 : en:21
01:16:24.238 : en:22
01:23:09.101 : en:23
01:27:35.951 : en:24


Релиз от: Автор релиза: Подпишись на меня:
   
Торрент: Зарегистрирован [19 май 2017, 20:34] Скачать торрент
Скачать торрент
О MediaGet
[ Размер 18.98 КБ / Просмотров 192 ]

Статус:
 
Приватный: Нет (DHT включён)
Размер: 3.6 ГБ (3 860 661 346 байт)
   
Аватара пользователя

Администратор
Администратор
 
Раздал: 2.33 ПБ
Скачал: 1.02 ПБ
Ратио: 2.281
Сообщения: 3723
Зарегистрирован: 07 май 2010, 17:29
Medals: 1
Лучший релиз за месяц (1)
  • Личное сообщение
  • ICQ

  • Похожие торренты
    Ответы
    Просмотры
    Последнее сообщение

Вернуться в Фильмы 2016 (новинки)

Кто сейчас на конференции

Зарегистрированные пользователи: bigcatwar

cron
Ресурс не предоставляет электронные версии произведений, а занимается лишь коллекционированием и каталогизацией ссылок, присылаемых и публикуемых на форуме нашими читателями. Если вы являетесь правообладателем какого-либо представленного материала и не желаете чтобы ссылка на него находилась в нашем каталоге, свяжитесь с нами и мы незамедлительно удалим её. Файлы для обмена на трекере предоставлены пользователями сайта, и администрация не несёт ответственности за их содержание. Просьба не заливать файлы, защищенные авторскими правами, а также файлы нелегального содержания!
cron