Большой толстый лгун 2 / Big Fat Liar 2 (2017) WEB-DLRip-AVC от MegaPeer | iTunes скачать торрент

Киноновинки, новинки кинопроката, горячие новинки

Модератор: Модераторы видео

  • Статистика раздачи
Размер: 1.46 ГБ   |  Зарегистрирован: 15 май 2017, 22:54   |   .torrent скачан: 2648 раз
Сидеров: 757  [ 0 байт/сек ]     Личеров: 112  [ 0 байт/сек ]  
Список файлов : Кто скачал : Раздают : Скачивают : Кто благодарил : История : Не раздающие : Запрашивали сидеров : Внешние трекеры 
  

Большой толстый лгун 2 / Big Fat Liar 2 (2017) WEB-DLRip-AVC от MegaPeer | iTunes

Сообщение Админ » 15 май 2017, 22:54

Информация о фильме
Название: Большой толстый лгун 2
Оригинальное название: Big Fat Liar 2
Год выхода: 2017
Жанр: Комедия, приключения, семейный
Режиссер: Рон Оливер

В ролях: Джоделль Ферланд, Бэрри Боствик, Эндрю Херр, Рики Гарсиа, Пол МакДжиллион, Эйприл Телек, Кевин О’Грэйди, Лиза МакФадден, Омари Ньютон, Кертис Льюм

О фильме: Кевин Шепард (Рики Гарсиа) – смекалистый парень, и во вранье с ним мало кто может сравниться, кроме разве что коварного продюсера Ларри Вульфа (Бэрри Боствик), который крадет у Кевина идею новой видеоигры. Вульф – тот еще наглец, и Кевин понимает, что это вызов. ИГРА НАЧАЛАСЬ! Они вместе с лучшей подругой Беккой (Джоделль Ферланд) не остановятся ни перед чем, чтобы заставить Вульфа признаться во лжи. В ход пойдут самые эпические выходки и подставы, и лгун сдастся на милость победителям.



Страна: США
Студия: Universal 1440 Entertainment
Продолжительность: 01:34:31
Перевод: Дублированный | iTunes

Файл
Кодек: H.264
Качество: WEB-DLRip-AVC | WEB-DL 1080p
Видео: 1024x576 (16:9), 23.976 fps, AVC MPEG-4 (x264), [email protected], ~ 1831 kbps avg, 0.129 bit/pixel
Звук: AC3, 6 ch, 384 Кбит/с
Субтитры: Русские

Релиз:

General
Unique ID : 240473172908443368386401471673182481829 (0xB4E972CDCA70533A85693CC7F9346DA5)
Complete name : D:TorrentBigger.Fatter.Liar.2017.D.WEB-DLRip-AVC.1.46Gb.MegaPeer.mkv
Format : Matroska
Format version : Version 2
File size : 1.46 GiB
Duration : 1 h 34 min
Overall bit rate : 2 214 kb/s
Encoded date : UTC 2017-05-14 19:26:26
Writing application : mkvmerge v7.8.0 ('River Man') 32bit built on Apr 3 2015 12:11:22
Writing library : libebml v1.3.1 + libmatroska v1.4.2

Video
ID : 1
Format : AVC
Format/Info : Advanced Video Codec
Format profile : [email protected]
Format settings, CABAC : Yes
Format settings, ReFrames : 12 frames
Codec ID : V_MPEG4/ISO/AVC
Duration : 1 h 34 min
Bit rate : 1 831 kb/s
Width : 1 024 pixels
Height : 576 pixels
Display aspect ratio : 16:9
Frame rate mode : Constant
Frame rate : 23.976 (24000/1001) FPS
Color space : YUV
Chroma subsampling : 4:2:0
Bit depth : 8 bits
Scan type : Progressive
Bits/(Pixel*Frame) : 0.129
Stream size : 1.18 GiB (81%)
Writing library : x264 core 146 r2538 121396c
Encoding settings : cabac=1 / ref=12 / deblock=1:-1:-1 / analyse=0x3:0x113 / me=umh / subme=11 / psy=1 / psy_rd=1.00:0.00 / mixed_ref=1 / me_range=48 / chroma_me=1 / trellis=2 / 8x8dct=1 / cqm=0 / deadzone=21,11 / fast_pskip=0 / chroma_qp_offset=-2 / threads=12 / lookahead_threads=2 / sliced_threads=0 / nr=0 / decimate=0 / interlaced=0 / bluray_compat=0 / constrained_intra=0 / bframes=9 / b_pyramid=2 / b_adapt=2 / b_bias=0 / direct=3 / weightb=1 / open_gop=0 / weightp=2 / keyint=250 / keyint_min=23 / scenecut=40 / intra_refresh=0 / rc_lookahead=40 / rc=2pass / mbtree=0 / bitrate=1831 / ratetol=1.0 / qcomp=0.60 / qpmin=0 / qpmax=69 / qpstep=4 / cplxblur=20.0 / qblur=0.5 / vbv_maxrate=14000 / vbv_bufsize=14000 / nal_hrd=none / filler=0 / ip_ratio=1.40 / pb_ratio=1.30 / aq=1:1.00
Default : Yes
Forced : No

Audio
ID : 2
Format : AC-3
Format/Info : Audio Coding 3
Format settings, Endianness : Big
Codec ID : A_AC3
Duration : 1 h 34 min
Bit rate mode : Constant
Bit rate : 384 kb/s
Channel(s) : 6 channels
Channel positions : Front: L C R, Side: L R, LFE
Sampling rate : 48.0 kHz
Frame rate : 31.250 FPS (1536 spf)
Bit depth : 16 bits
Compression mode : Lossy
Stream size : 260 MiB (17%)
Service kind : Complete Main
Default : Yes
Forced : No

Text
ID : 3
Format : UTF-8
Codec ID : S_TEXT/UTF8
Codec ID/Info : UTF-8 Plain Text
Default : Yes
Forced : No


   
Торрент: Зарегистрирован [15 май 2017, 22:54] Скачать торрент
Скачать торрент
О MediaGet
[ Размер 15.61 КБ / Просмотров 50 ]

Статус:
 
Приватный: Нет (DHT включён)
Размер: 1.46 ГБ (1 570 068 571 байт)
   
Аватара пользователя

Администратор
Администратор
 
Раздал: 2.33 ПБ
Скачал: 1.02 ПБ
Ратио: 2.281
Сообщения: 3702
Зарегистрирован: 07 май 2010, 17:29
Medals: 1
Лучший релиз за месяц (1)
  • Личное сообщение
  • ICQ

  • Похожие торренты
    Ответы
    Просмотры
    Последнее сообщение

Вернуться в Фильмы 2016 (новинки)

Кто сейчас на конференции

Зарегистрированные пользователи: bigcatwar, ЗУРБАГАН

Ресурс не предоставляет электронные версии произведений, а занимается лишь коллекционированием и каталогизацией ссылок, присылаемых и публикуемых на форуме нашими читателями. Если вы являетесь правообладателем какого-либо представленного материала и не желаете чтобы ссылка на него находилась в нашем каталоге, свяжитесь с нами и мы незамедлительно удалим её. Файлы для обмена на трекере предоставлены пользователями сайта, и администрация не несёт ответственности за их содержание. Просьба не заливать файлы, защищенные авторскими правами, а также файлы нелегального содержания!
cron