Жена смотрителя зоопарка / The Zookeeper's Wife (2017) WEB-DLRip 1080p | Line скачать торрент

Киноновинки, новинки кинопроката, горячие новинки

Модератор: Модераторы видео

  • Статистика раздачи
Размер: 3.78 ГБ   |  Зарегистрирован: 13 май 2017, 00:26   |   .torrent скачан: 14547 раз
Сидеров: 1995  [ 0 байт/сек ]     Личеров: 211  [ 0 байт/сек ]  
Список файлов : Кто скачал : Раздают : Скачивают : Кто благодарил : История : Не раздающие : Запрашивали сидеров : Внешние трекеры 
  

Жена смотрителя зоопарка / The Zookeeper's Wife (2017) WEB-DLRip 1080p | Line

Сообщение Админ » 13 май 2017, 00:26

Информация о фильме
Название: Жена смотрителя зоопарка
Оригинальное название: The Zookeeper's Wife
Год выхода: 2017
Жанр: драма, военный, биография, история
Режиссер: Ники Каро
В ролях: Джессика Честейн, Йохан Хелденберг, Даниэль Брюль, Тимоти Редфорд, Эфрат Дор, Иддо Голдберг, Шира Хаас, Майкл МакЭлхаттон, Вэл Малоку, Марта Иссова

О фильме:
Реальная история отважного подвига смотрителей Варшавского зоопарка Яна и Антонины Жабинских, давших убежище и сохранивших жизнь более, чем 300 евреям во время II Мировой войны. Ежедневный риск и опасность осложняются для Жабинских взаимоотношениями с бывшим другом семьи, а ныне высокопоставленным нацистским чиновником Лутцем Хеком, влюбленным в Антонину.

Страна: Чехия, Великобритания, США
Студия: Czech Anglo Productions, Liddell Entertainment, Rowe / Miller Productions, Scion Films Limited
Продолжительность: 02:01:38
Перевод: Дубляж | Line

Файл
Кодек: MPEG-4 AVC
Качество: WEB-DLRip 1080p
Видео: 1920x800, 4000kb/s, 25.000fps
Звук: 448kb/s, 2ch, 44100kHz, AC3 [RUS]
Субтитры: Отсутствуют / РЕКЛАМА ОТСУТСТВУЕТ

Семпл

Общее
Уникальный идентификатор : 96051770562140332616187088080657535883 (0x4842E5EAC79A1C98AC43A3C1996D538B)
Полное имя : G:MOVIESЖена смотрителя зоопарка [The Zookeeper's Wife] 2017 [WEB-DL 1080p].mkv
Формат : Matroska
Версия формата : Version 4 / Version 2
Размер файла : 3,78 Гбайт
Продолжительность : 2 ч. 1 м.
Общий поток : 4451 Кбит/сек
Программа кодирования : Lavf57.25.100
Библиотека кодирования : Lavf57.25.100

Видео
Идентификатор : 1
Формат : AVC
Формат/Информация : Advanced Video Codec
Профиль формата : [email protected]
Параметр CABAC формата : Да
Параметр ReFrames формата : 3 кадра
Идентификатор кодека : V_MPEG4/ISO/AVC
Продолжительность : 2 ч. 1 м.
Битрейт : 4000 Кбит/сек
Ширина : 1920 пикселей
Ширина оригинала : 1912 пикселей
Высота : 800 пикселей
Соотношение сторон : 2,40:1
Соотношение сторон в оригинале : 2,40:1
Режим частоты кадров : Постоянный
Частота кадров : 25,000 кадров/сек
Цветовое пространство : YUV
Субдискретизация насыщенности : 4:2:0
Битовая глубина : 8 бит
Тип развёртки : Прогрессивная
Бит/(Пиксели*Кадры) : 0.104
Размер потока : 3,33 Гбайт (88%)
Библиотека кодирования : x264 core 142 r2389 956c8d8
Настройки программы : cabac=1 / ref=3 / deblock=1:0:0 / analyse=0x3:0x133 / me=umh / subme=7 / psy=1 / psy_rd=1.00:0.00 / mixed_ref=1 / me_range=32 / chroma_me=1 / trellis=2 / 8x8dct=1 / cqm=0 / deadzone=21,11 / fast_pskip=1 / chroma_qp_offset=-2 / threads=12 / lookahead_threads=2 / sliced_threads=0 / nr=0 / decimate=1 / interlaced=0 / bluray_compat=0 / constrained_intra=0 / bframes=0 / weightp=0 / keyint=75 / keyint_min=26 / scenecut=40 / intra_refresh=0 / rc_lookahead=50 / rc=2pass / mbtree=0 / bitrate=4000 / ratetol=1.0 / qcomp=0.20 / qpmin=10 / qpmax=51 / qpstep=4 / cplxblur=20.0 / qblur=0.5 / vbv_maxrate=5000 / vbv_bufsize=5000 / nal_hrd=none / filler=0 / ip_ratio=1.40 / aq=1:1.00
Default : Да
Forced : Нет
DURATION : 02:01:38.080000000
Основные цвета : BT.709
Характеристики трансфера : BT.709
Коэффициенты матрицы : BT.709

Аудио
Идентификатор : 2
Формат : AC-3
Формат/Информация : Audio Coding 3
Расширение режима : CM (complete main)
Параметр Endianness формата : Big
Идентификатор кодека : A_AC3
Продолжительность : 2 ч. 1 м.
Вид битрейта : Постоянный
Битрейт : 448 Кбит/сек
Каналы : 2 канала
Расположение каналов : Front: L R
Частота : 44,1 КГц
Битовая глубина : 16 бит
Метод сжатия : С потерями
Размер потока : 390 Мбайт (10%)
Язык : unknown
Default : Да
Forced : Нет
DURATION : 02:01:38.055000000









   
Торрент: Зарегистрирован [13 май 2017, 00:26] Скачать торрент
Скачать торрент
О MediaGet
[ Размер 20.1 КБ / Просмотров 32 ]

Статус:
 
Приватный: Нет (DHT включён)
Размер: 3.78 ГБ (4 060 805 325 байт)
   
Аватара пользователя

Администратор
Администратор
 
Раздал: 2.33 ПБ
Скачал: 1.02 ПБ
Ратио: 2.281
Сообщения: 3723
Зарегистрирован: 07 май 2010, 17:29
Medals: 1
Лучший релиз за месяц (1)
  • Личное сообщение
  • ICQ

  • Похожие торренты
    Ответы
    Просмотры
    Последнее сообщение

Вернуться в Фильмы 2016 (новинки)

Кто сейчас на конференции

Зарегистрированные пользователи: bigcatwar

cron
Ресурс не предоставляет электронные версии произведений, а занимается лишь коллекционированием и каталогизацией ссылок, присылаемых и публикуемых на форуме нашими читателями. Если вы являетесь правообладателем какого-либо представленного материала и не желаете чтобы ссылка на него находилась в нашем каталоге, свяжитесь с нами и мы незамедлительно удалим её. Файлы для обмена на трекере предоставлены пользователями сайта, и администрация не несёт ответственности за их содержание. Просьба не заливать файлы, защищенные авторскими правами, а также файлы нелегального содержания!
cron