На пятьдесят оттенков темнее / Fifty Shades Darker (2017) WEB-DL 1080p | iTunes скачать торрент

Киноновинки, новинки кинопроката, горячие новинки

Модератор: Модераторы видео

  • Статистика раздачи
Размер: 4.06 ГБ   |  Зарегистрирован: 06 апр 2017, 14:33   |   .torrent скачан: 27065 раз
Сидеров: 11902  [ 0 байт/сек ]     Личеров: 3498  [ 0 байт/сек ]  
Список файлов : Кто скачал : Раздают : Скачивают : Кто благодарил : История : Не раздающие : Запрашивали сидеров : Внешние трекеры 
  

На пятьдесят оттенков темнее / Fifty Shades Darker (2017) WEB-DL 1080p | iTunes

Сообщение Админ » 06 апр 2017, 14:33

Информация о фильме
Название: На пятьдесят оттенков темнее
Оригинальное название: Fifty Shades Darker
Год выхода: 2017
Жанр: драма, мелодрама
Режиссер: Джеймс Фоули
В ролях: Дакота Джонсон, Джейми Дорнан, Эрик Джонсон, Элоиза Мамфорд, Белла Хиткот, Рита Ора, Люк Граймс, Виктор Расук, Макс Мартини, Брюс Олтмен
О фильме: Пока Кристиан Грей борется со своими внутренними демонами, Анастейша Стил вынуждена противостоять гневу и зависти тех женщин, что были с Кристианом до нее.

Выпущено: США / Universal Pictures
Продолжительность: 01:57:48
Озвучивание: Дублированное [iTunes]
Файл
Формат: MKV
Качество: WEB-DL 1080p
Видео: MPEG-4 AVC, 4554 kb/s, 1916x796
Аудио: AC3, 384 kb/s (6 ch)
Format : Matroska
Format version : Version 2
File size : 4.06 GiB
Duration : 1 h 57 min
Overall bit rate : 4 939 kb/s
Encoded date : UTC 2017-04-05 18:11:44
Writing application : mkvmerge v8.3.0 ('Over the Horizon') 64bit
Writing library : libebml v1.3.1 + libmatroska v1.4.2

Video
ID : 1
Format : AVC
Format/Info : Advanced Video Codec
Format profile : [email protected]
Format settings, CABAC : Yes
Format settings, ReFrames : 5 frames
Codec ID : V_MPEG4/ISO/AVC
Duration : 1 h 57 min
Bit rate : 4 554 kb/s
Width : 1 916 pixels
Height : 796 pixels
Display aspect ratio : 2.40:1
Frame rate mode : Constant
Frame rate : 23.976 (23976/1000) FPS
Color space : YUV
Chroma subsampling : 4:2:0
Bit depth : 8 bits
Scan type : Progressive
Bits/(Pixel*Frame) : 0.125
Stream size : 3.75 GiB (92%)
Language : English
Default : Yes
Forced : No
Color range : Limited
Color primaries : BT.709
Transfer characteristics : BT.709
Matrix coefficients : BT.709

Audio
ID : 2
Format : AC-3
Format/Info : Audio Coding 3
Mode extension : CM (complete main)
Format settings, Endianness : Big
Codec ID : A_AC3
Duration : 1 h 57 min
Bit rate mode : Constant
Bit rate : 384 kb/s
Channel(s) : 6 channels
Channel positions : Front: L C R, Side: L R, LFE
Sampling rate : 48.0 kHz
Frame rate : 31.250 FPS (1536 spf)
Compression mode : Lossy
Stream size : 324 MiB (8%)
Language : Russian
Default : Yes
Forced : No

Menu
00:00:00.000 : en:1
00:05:15.482 : en:2
00:11:30.273 : en:3
00:16:09.593 : en:4
00:22:36.896 : en:5
00:26:52.359 : en:6
00:34:57.886 : en:7
00:42:04.479 : en:8
00:47:55.079 : en:9
00:55:30.742 : en:10
01:03:23.297 : en:11
01:09:16.274 : en:12
01:16:04.140 : en:13
01:21:54.114 : en:14
01:26:54.914 : en:15
01:32:14.483 : en:16
01:37:46.439 : en:17
01:42:42.067 : en:18
01:47:58.967 : en:19
01:51:52.700 : en:20





   
Торрент: Зарегистрирован [06 апр 2017, 14:33] Скачать торрент
Скачать торрент
О MediaGet
[ Размер 21.29 КБ / Просмотров 204 ]

Статус:
 
Приватный: Нет (DHT включён)
Размер: 4.06 ГБ (4 364 241 938 байт)
   
Аватара пользователя

Администратор
Администратор
 
Раздал: 2.33 ПБ
Скачал: 1.02 ПБ
Ратио: 2.281
Сообщения: 3718
Зарегистрирован: 07 май 2010, 17:29
Medals: 1
Лучший релиз за месяц (1)
  • Личное сообщение
  • ICQ

  • Похожие торренты
    Ответы
    Просмотры
    Последнее сообщение

Вернуться в Фильмы 2016 (новинки)

Кто сейчас на конференции

Зарегистрированные пользователи: CaaaIIIKaaa

Ресурс не предоставляет электронные версии произведений, а занимается лишь коллекционированием и каталогизацией ссылок, присылаемых и публикуемых на форуме нашими читателями. Если вы являетесь правообладателем какого-либо представленного материала и не желаете чтобы ссылка на него находилась в нашем каталоге, свяжитесь с нами и мы незамедлительно удалим её. Файлы для обмена на трекере предоставлены пользователями сайта, и администрация не несёт ответственности за их содержание. Просьба не заливать файлы, защищенные авторскими правами, а также файлы нелегального содержания!
cron