SuperАлиби / Alibi.com (2017) WEB-DL 720p | iTunes скачать торрент

Киноновинки, новинки кинопроката, горячие новинки

Модератор: Модераторы видео

  • Статистика раздачи
Размер: 2.88 ГБ   |  Зарегистрирован: 06 апр 2017, 14:33   |   .torrent скачан: 23706 раз
Сидеров: 10117  [ 0 байт/сек ]     Личеров: 2002  [ 0 байт/сек ]  
Список файлов : Кто скачал : Раздают : Скачивают : Кто благодарил : История : Не раздающие : Запрашивали сидеров : Внешние трекеры 
  

SuperАлиби / Alibi.com (2017) WEB-DL 720p | iTunes

Сообщение Админ » 06 апр 2017, 14:33

Информация о фильме
Название: SuperАлиби
Оригинальное название: Alibi.com
Год выхода: 2017
Жанр: Комедия
Режиссер: Филипп Лашо
В ролях: Филипп Лашо, Элоди Фонтан, Жюльен Аррути, Тарек Будали, Дидье Бурдон, Натали Бай, Науэлл Мадани, Меди Садун, Венсан Дезанья, Элис Дюфур
О фильме: Нужно алиби, чтобы втайне от супруги спокойно отдохнуть с друзьями на футболе? Вам поможет агентство по созданию алиби. Нужна отмазка в школе? Обращайтесь! Решили отдохнуть от семьи в выходные? Мы на связи! Этот стартап Грега и его команды уже получил оглушительный успех… Но когда он встречает Фло, девушку своей мечты, которая презирает всех лгунов и изменщиков, ему приходится скрывать род своей деятельности. Паутина лжи Грега становится настолько сложной, что даже лучшему лжецу в мире придется изрядно изловчиться, чтобы выкрутиться из нее…

Выпущено: Франция / Canal+ [fr], Ciné, CN5 Productions
Продолжительность: 01:25:41
Озвучивание: Дублированное [iTunes]
Файл
Формат: MKV
Качество: WEB-DL 720p
Видео: MPEG-4 AVC, 4044 kb/s, [email protected]
Аудио: Russian: AC3, 384 kb/s (6 ch) / Ukrainian: AC3, 384 kb/s (6 ch)

Format : Matroska
Format version : Version 2
File size : 2.88 GiB
Duration : 1 h 25 min
Overall bit rate : 4 814 kb/s
Encoded date : UTC 2017-04-05 18:19:22
Writing application : mkvmerge v8.3.0 ('Over the Horizon') 64bit
Writing library : libebml v1.3.1 + libmatroska v1.4.2

Video
ID : 1
Format : AVC
Format/Info : Advanced Video Codec
Format profile : [email protected]
Format settings, CABAC : No
Format settings, ReFrames : 2 frames
Codec ID : V_MPEG4/ISO/AVC
Duration : 1 h 25 min
Bit rate : 4 044 kb/s
Width : 960 pixels
Height : 692 pixels
Display aspect ratio : 1.85:1
Frame rate mode : Constant
Frame rate : 25.000 FPS
Color space : YUV
Chroma subsampling : 4:2:0
Bit depth : 8 bits
Scan type : Progressive
Bits/(Pixel*Frame) : 0.243
Stream size : 2.42 GiB (84%)
Language : English
Default : Yes
Forced : No
Color range : Limited
Color primaries : BT.709
Transfer characteristics : BT.709
Matrix coefficients : BT.709

Audio #1
ID : 2
Format : AC-3
Format/Info : Audio Coding 3
Mode extension : CM (complete main)
Format settings, Endianness : Big
Codec ID : A_AC3
Duration : 1 h 25 min
Bit rate mode : Constant
Bit rate : 384 kb/s
Channel(s) : 6 channels
Channel positions : Front: L C R, Side: L R, LFE
Sampling rate : 48.0 kHz
Frame rate : 31.250 FPS (1536 spf)
Compression mode : Lossy
Stream size : 235 MiB (8%)
Language : Russian
Default : Yes
Forced : No

Audio #2
ID : 3
Format : AC-3
Format/Info : Audio Coding 3
Mode extension : CM (complete main)
Format settings, Endianness : Big
Codec ID : A_AC3
Duration : 1 h 25 min
Bit rate mode : Constant
Bit rate : 384 kb/s
Channel(s) : 6 channels
Channel positions : Front: L C R, Side: L R, LFE
Sampling rate : 48.0 kHz
Frame rate : 31.250 FPS (1536 spf)
Compression mode : Lossy
Stream size : 235 MiB (8%)
Language : Ukrainian
Default : No
Forced : No

Menu
00:00:00.000 : en:Глава 1
00:06:10.680 : en:Глава 2
00:11:29.320 : en:Глава 3
00:16:51.800 : en:Глава 4
00:23:38.760 : en:Глава 5
00:29:31.200 : en:Глава 6
00:35:36.280 : en:Глава 7
00:41:25.640 : en:Глава 8
00:47:41.000 : en:Глава 9
00:52:48.480 : en:Глава 10
00:59:43.080 : en:Глава 11
01:05:06.480 : en:Глава 12
01:10:18.640 : en:Глава 13
01:15:43.120 : en:Глава 14





   
Торрент: Зарегистрирован [06 апр 2017, 14:33] Скачать торрент
Скачать торрент
О MediaGet
[ Размер 15.36 КБ / Просмотров 192 ]

Статус:
 
Приватный: Нет (DHT включён)
Размер: 2.88 ГБ (3 093 840 537 байт)
   
Аватара пользователя

Администратор
Администратор
 
Раздал: 2.33 ПБ
Скачал: 1.02 ПБ
Ратио: 2.281
Сообщения: 3718
Зарегистрирован: 07 май 2010, 17:29
Medals: 1
Лучший релиз за месяц (1)
  • Личное сообщение
  • ICQ

  • Похожие торренты
    Ответы
    Просмотры
    Последнее сообщение

Вернуться в Фильмы 2016 (новинки)

Кто сейчас на конференции

Зарегистрированные пользователи: нет зарегистрированных пользователей

Ресурс не предоставляет электронные версии произведений, а занимается лишь коллекционированием и каталогизацией ссылок, присылаемых и публикуемых на форуме нашими читателями. Если вы являетесь правообладателем какого-либо представленного материала и не желаете чтобы ссылка на него находилась в нашем каталоге, свяжитесь с нами и мы незамедлительно удалим её. Файлы для обмена на трекере предоставлены пользователями сайта, и администрация не несёт ответственности за их содержание. Просьба не заливать файлы, защищенные авторскими правами, а также файлы нелегального содержания!
cron