Долгий путь Билли Линна в перерыве футбольного матча / Billy Lynn's Long Halftime Walk (2016) BDRip 720p от ExKinoRay | iTunes скачать торрент

Киноновинки, новинки кинопроката, горячие новинки

Модератор: Модераторы видео

  • Статистика раздачи
Размер: 5.86 ГБ   |  Зарегистрирован: 24 фев 2017, 22:46   |   .torrent скачан: 1740 раз
Сидеров: 167  [ 0 байт/сек ]     Личеров: 18  [ 0 байт/сек ]  
Список файлов : Кто скачал : Раздают : Скачивают : Кто благодарил : История : Не раздающие : Запрашивали сидеров : Внешние трекеры 
  

Долгий путь Билли Линна в перерыве футбольного матча / Billy Lynn's Long Halftime Walk (2016) BDRip 720p от ExKinoRay | iTunes

Сообщение Админ » 24 фев 2017, 22:46

Информация о фильме
Название: Долгий путь Билли Линна в перерыве футбольного матча
Оригинальное название: Billy Lynn's Long Halftime Walk
Год выхода: 2016
Жанр: Драма, военный
Режиссер: Энг Ли
В ролях: Джо Элвин, Гаррет Хедлунд, Артуро Кастро, Мэйсон Ли, Астро, Бо Напп, Исмаэль Круз, Барни Харрис, Вин Дизель, Стив Мартин

О фильме:
История о 19-летнем солдате Билли Линне и его взводе, который выживает в битве в Ираке. Во время боя они оказываются заснятыми на портативные новостные камеры, и из них вовсю лепят героев. Их привозят домой и отправляют в промо-тур, кульминацией которого становится шоу в перерыве футбольного матча в День благодарения. А после него они должны снова отправиться на войну.


Страна: США, Великобритания, Китай
Студия: Bona Film Group, Film4, Marc Platt Productions
Продолжительность: 01:52:45
Перевод: Профессиональный многоголосый (закадровый) | iTunes

Файл
Качество: BDRip 720p
Видео: MPEG-4 AVC, 1280x690, 5541 Kbit/s, 23.976 fps
Звук:
Аудио #01: 48 kHz, AC3, 2.0, 384 Kbps | Профессиональный многоголосый (закадровый) |
Аудио #02: 48 kHz, DTS, 5.1, 1510 kbps | Оригинал |
Субтитры: Русские, английские, украинские

General
Unique ID : 171845668344233426407887025112281513256 (0x81484597D03F7156A06B6097B39FFD28)
Complete name : G:VideoBilly.Lynn's.Long.Halftime.Walk.2016.BDRip.720p.ExKinoRay.mkv
Format : Matroska
Format version : Version 4 / Version 2
File size : 5.86 GiB
Duration : 1 h 52 min
Overall bit rate : 7 437 kb/s
Encoded date : UTC 2017-02-23 21:54:49
Writing application : mkvmerge v8.3.0 ('Over the Horizon') 64bit
Writing library : libebml v1.3.1 + libmatroska v1.4.2

Video
ID : 1
Format : AVC
Format/Info : Advanced Video Codec
Format profile : [email protected]
Format settings, CABAC : Yes
Format settings, ReFrames : 9 frames
Codec ID : V_MPEG4/ISO/AVC
Duration : 1 h 52 min
Bit rate : 5 541 kb/s
Width : 1 280 pixels
Height : 690 pixels
Display aspect ratio : 1.85:1
Frame rate mode : Constant
Frame rate : 23.976 (24000/1001) FPS
Color space : YUV
Chroma subsampling : 4:2:0
Bit depth : 8 bits
Scan type : Progressive
Bits/(Pixel*Frame) : 0.262
Stream size : 4.36 GiB (75%)
Writing library : x264 core 142 r2431+42 c69a006 tMod [[email protected]:2:0 X86_64]
Encoding settings : cabac=1 / ref=9 / deblock=1:-3:-3 / analyse=0x3:0x113 / me=umh / subme=11 / psy=1 / fade_compensate=0.00 / psy_rd=1.00:0.05 / mixed_ref=1 / me_range=32 / chroma_me=1 / trellis=2 / 8x8dct=1 / cqm=0 / deadzone=21,11 / fast_pskip=0 / chroma_qp_offset=-2 / threads=12 / lookahead_threads=2 / sliced_threads=0 / nr=0 / decimate=1 / interlaced=0 / bluray_compat=0 / constrained_intra=0 / fgo=0 / bframes=8 / b_pyramid=2 / b_adapt=2 / b_bias=0 / direct=3 / weightb=1 / open_gop=0 / weightp=2 / keyint=250 / keyint_min=23 / scenecut=40 / intra_refresh=0 / rc_lookahead=40 / rc=crf / mbtree=0 / crf=17.0000 / qcomp=0.60 / qpmin=0:0:0 / qpmax=69:69:69 / qpstep=4 / vbv_maxrate=30000 / vbv_bufsize=30000 / crf_max=0.0 / nal_hrd=none / filler=0 / ip_ratio=1.40 / pb_ratio=1.30 / aq=3:1.00 / aq-sensitivity=10.00 / aq-factor=1.00:1.00:1.00 / aq2=0 / aq3=0
Language : English
Default : Yes
Forced : No
Color range : Limited
Matrix coefficients : BT.709

Audio #1
ID : 2
Format : AC-3
Format/Info : Audio Coding 3
Mode extension : CM (complete main)
Format settings, Endianness : Big
Codec ID : A_AC3
Duration : 1 h 52 min
Bit rate mode : Constant
Bit rate : 384 kb/s
Channel(s) : 2 channels
Channel positions : Front: L R
Sampling rate : 48.0 kHz
Frame rate : 31.250 FPS (1536 spf)
Bit depth : 16 bits
Compression mode : Lossy
Stream size : 310 MiB (5%)
Title : iTunes
Language : Russian
Default : Yes
Forced : No

Audio #2
ID : 3
Format : DTS
Format/Info : Digital Theater Systems
Mode : 16
Format settings, Endianness : Big
Codec ID : A_DTS
Duration : 1 h 52 min
Bit rate mode : Constant
Bit rate : 1 509 kb/s
Channel(s) : 6 channels
Channel positions : Front: L C R, Side: L R, LFE
Sampling rate : 48.0 kHz
Frame rate : 93.750 FPS (512 spf)
Bit depth : 24 bits
Compression mode : Lossy
Stream size : 1.19 GiB (20%)
Title : Original
Language : English
Default : No
Forced : No

Text #1
ID : 4
Format : UTF-8
Codec ID : S_TEXT/UTF8
Codec ID/Info : UTF-8 Plain Text
Duration : 1 h 50 min
Bit rate : 126 b/s
Count of elements : 1929
Stream size : 102 KiB (0%)
Title : iTunes
Language : Russian
Default : No
Forced : No

Text #2
ID : 5
Format : UTF-8
Codec ID : S_TEXT/UTF8
Codec ID/Info : UTF-8 Plain Text
Duration : 1 h 50 min
Bit rate : 123 b/s
Count of elements : 1928
Stream size : 100 KiB (0%)
Title : iTunes
Language : Ukrainian
Default : No
Forced : No

Text #3
ID : 6
Format : UTF-8
Codec ID : S_TEXT/UTF8
Codec ID/Info : UTF-8 Plain Text
Duration : 1 h 45 min
Bit rate : 88 b/s
Count of elements : 1908
Stream size : 68.5 KiB (0%)
Title : iTunes
Language : English
Default : No
Forced : No

Menu
00:00:00.000 : en:1
00:06:04.906 : en:2
00:13:20.883 : en:3
00:20:10.291 : en:4
00:26:23.539 : en:5
00:31:08.781 : en:6
00:39:04.465 : en:7
00:48:50.925 : en:8
00:55:57.642 : en:9
01:04:17.350 : en:10
01:10:15.750 : en:11
01:17:13.250 : en:12
01:22:07.502 : en:13
01:29:12.259 : en:14
01:35:20.585 : en:15
01:42:51.534 : en:16




Релиз от: Автор релиза:
   
Торрент: Зарегистрирован [24 фев 2017, 22:46] За каждые 2 ГБ. аплоада (сидирования) этого торрента начисляется бонус: 0.001 Скачать торрент
Скачать торрент
О MediaGet
[ Размер 30.28 КБ / Просмотров 76 ]

Статус:
 
Приватный: Нет (DHT включён)
Размер: 5.86 ГБ (6 289 560 953 байт)
   
Аватара пользователя

Администратор
Администратор
 
Раздал: 2.33 ПБ
Скачал: 1.02 ПБ
Ратио: 2.281
Сообщения: 3719
Зарегистрирован: 07 май 2010, 17:29
Medals: 1
Лучший релиз за месяц (1)
  • Личное сообщение
  • ICQ

Вернуться в Фильмы 2016 (новинки)

Кто сейчас на конференции

Зарегистрированные пользователи: fas28

Ресурс не предоставляет электронные версии произведений, а занимается лишь коллекционированием и каталогизацией ссылок, присылаемых и публикуемых на форуме нашими читателями. Если вы являетесь правообладателем какого-либо представленного материала и не желаете чтобы ссылка на него находилась в нашем каталоге, свяжитесь с нами и мы незамедлительно удалим её. Файлы для обмена на трекере предоставлены пользователями сайта, и администрация не несёт ответственности за их содержание. Просьба не заливать файлы, защищенные авторскими правами, а также файлы нелегального содержания!
cron