Чужой против Хищника: Искупление / AVP Redemption (2015) WEB-DL 720p | L1 скачать торрент

Киноновинки, новинки кинопроката, горячие новинки

Модератор: Модераторы видео

  • Статистика раздачи
Размер: 455.4 МБ   |  Зарегистрирован: 21 фев 2017, 00:20   |   .torrent скачан: 6688 раз
Сидеров: 3198  [ 0 байт/сек ]     Личеров: 77  [ 0 байт/сек ]  
Список файлов : Кто скачал : Раздают : Скачивают : Кто благодарил : История : Не раздающие : Запрашивали сидеров : Внешние трекеры 
  

Чужой против Хищника: Искупление / AVP Redemption (2015) WEB-DL 720p | L1

Сообщение Админ » 21 фев 2017, 00:20

Информация о фильме
Название: Чужой против Хищника: Искупление
Оригинальное название: AVP Redemption
Год выхода: 2015
Жанр: боевик, фантастика, Ужасы, короткометражный
Режиссер: Алекс Попов
В ролях: Скотт Лесли, Райан Сарджент, Скотт Рид, Дж. Дэниел Джонс, Алекс Попов

О фильме:
Самые жестокие, известному галактическому миру существа встретятся в поединке, который, казалось бы, мог навсегда ответить на вопрос, кто выше в силе и развитии. Каждый оправдывает себя в своих свирепых действиях. Одни защищают свой вид, другие – просто исследователи. Почему же истребление отличающегося от себя вида кажется столь понятным и даже резонным. Не только человек будет героем, смелость которого будет записана в логах корабля уже после его смерти, так же и два других врага по разуму будут оплакиваться под лунами своих планет. Каждый из них попробует убить другого, способами, присущими их виду: внедряясь в тело жертвы или, используя сталь оружия.


Релиз группа: НЕВЬЯНСК

Страна: США
Студия: Runaway Pictures Studio
Продолжительность: 00:22:15
Перевод: Любительский (одноголосый закадровый) Tantinfec

Файл
Формат: H.264
Качество: WEB-DL 720p
Видео: MPEG-4 AVC, 1280x720, 2443 Кбит/с, 23.976 кадр/с
Аудио#1: Русский (48 kHz, AC3, 2 ch, 256 Кбит/с)
Аудио#2: Английский (48 kHz, AAC, 2 ch, ~160 kbps)
Субтитры: Русские, английские

General
Unique ID : 250482422662327273209424840238128538866 (0xBC7128EAEF06414799671E424035A4F2)
Complete name : C:UsersРоманDesktopAlien vs Predator. Redemption (2015).mkv
Format : Matroska
Format version : Version 4 / Version 2
File size : 455 MiB
Duration : 22 min 14 s
Overall bit rate : 2 862 kb/s
Encoded date : UTC 2017-02-20 09:22:10
Writing application : mkvmerge v9.8.0 ('Kuglblids') 64bit
Writing library : libebml v1.3.4 + libmatroska v1.4.5

Video
ID : 1
Format : AVC
Format/Info : Advanced Video Codec
Format profile : [email protected]
Format settings, CABAC : Yes
Format settings, ReFrames : 5 frames
Codec ID : V_MPEG4/ISO/AVC
Duration : 22 min 14 s
Bit rate : 2 443 kb/s
Width : 1 280 pixels
Height : 720 pixels
Display aspect ratio : 16:9
Frame rate mode : Constant
Frame rate : 29.970 (30000/1001) FPS
Color space : YUV
Chroma subsampling : 4:2:0
Bit depth : 8 bits
Scan type : Progressive
Bits/(Pixel*Frame) : 0.088
Stream size : 389 MiB (85%)
Writing library : x264 core 148 r11 73ae2d1
Encoding settings : cabac=1 / ref=5 / deblock=1:0:0 / analyse=0x3:0x113 / me=umh / subme=8 / psy=1 / psy_rd=1.00:0.00 / mixed_ref=1 / me_range=16 / chroma_me=1 / trellis=1 / 8x8dct=1 / cqm=0 / deadzone=21,11 / fast_pskip=1 / chroma_qp_offset=-2 / threads=22 / lookahead_threads=3 / sliced_threads=0 / nr=0 / decimate=1 / interlaced=0 / bluray_compat=0 / stitchable=1 / constrained_intra=0 / bframes=3 / b_pyramid=2 / b_adapt=2 / b_bias=0 / direct=3 / weightb=1 / open_gop=0 / weightp=2 / keyint=infinite / keyint_min=29 / scenecut=40 / intra_refresh=0 / rc_lookahead=50 / rc=crf / mbtree=1 / crf=20.0 / qcomp=0.60 / qpmin=5 / qpmax=69 / qpstep=4 / vbv_maxrate=2750 / vbv_bufsize=7500 / crf_max=0.0 / nal_hrd=none / filler=0 / ip_ratio=1.40 / aq=1:1.00
Default : Yes
Forced : No
Color range : Limited
Color primaries : BT.709
Transfer characteristics : BT.709
Matrix coefficients : BT.709

Audio #1
ID : 2
Format : AC-3
Format/Info : Audio Coding 3
Mode extension : CM (complete main)
Format settings, Endianness : Big
Codec ID : A_AC3
Duration : 22 min 14 s
Bit rate mode : Constant
Bit rate : 256 kb/s
Channel(s) : 2 channels
Channel positions : Front: L R
Sampling rate : 48.0 kHz
Frame rate : 31.250 FPS (1536 spf)
Compression mode : Lossy
Stream size : 40.7 MiB (9%)
Title : Tantinfec
Language : Russian
Default : Yes
Forced : No

Audio #2
ID : 3
Format : AAC
Format/Info : Advanced Audio Codec
Format profile : LC
Codec ID : A_AAC
Duration : 22 min 14 s
Bit rate : 160 kb/s
Channel(s) : 2 channels
Channel positions : Front: L R
Sampling rate : 48.0 kHz
Frame rate : 46.875 FPS (1024 spf)
Compression mode : Lossy
Stream size : 25.5 MiB (6%)
Title : Original
Language : English
Default : No
Forced : No

Text #1
ID : 4
Format : UTF-8
Codec ID : S_TEXT/UTF8
Codec ID/Info : UTF-8 Plain Text
Duration : 21 min 15 s
Bit rate : 12 b/s
Count of elements : 37
Stream size : 2.01 KiB (0%)
Title : russian
Language : Russian
Default : No
Forced : No

Text #2
ID : 5
Format : UTF-8
Codec ID : S_TEXT/UTF8
Codec ID/Info : UTF-8 Plain Text
Duration : 21 min 15 s
Bit rate : 7 b/s
Count of elements : 37
Stream size : 1.19 KiB (0%)
Title : english
Language : English
Default : No
Forced : No


   
Торрент: Зарегистрирован [21 фев 2017, 00:20] Скачать торрент
Скачать торрент
О MediaGet
[ Размер 18.67 КБ / Просмотров 104 ]

Статус:
 
Приватный: Нет (DHT включён)
Размер: 455.4 МБ (477 519 775 байт)
   
Аватара пользователя

Администратор
Администратор
 
Раздал: 2.33 ПБ
Скачал: 1.02 ПБ
Ратио: 2.281
Сообщения: 3719
Зарегистрирован: 07 май 2010, 17:29
Medals: 1
Лучший релиз за месяц (1)
  • Личное сообщение
  • ICQ

  • Похожие торренты
    Ответы
    Просмотры
    Последнее сообщение

Вернуться в Фильмы 2016 (новинки)

Кто сейчас на конференции

Зарегистрированные пользователи: fas28

Ресурс не предоставляет электронные версии произведений, а занимается лишь коллекционированием и каталогизацией ссылок, присылаемых и публикуемых на форуме нашими читателями. Если вы являетесь правообладателем какого-либо представленного материала и не желаете чтобы ссылка на него находилась в нашем каталоге, свяжитесь с нами и мы незамедлительно удалим её. Файлы для обмена на трекере предоставлены пользователями сайта, и администрация не несёт ответственности за их содержание. Просьба не заливать файлы, защищенные авторскими правами, а также файлы нелегального содержания!
cron