Сопротивление воздуха / La résistance de l'air (2015) BDRip 720p | P скачать торрент

Киноновинки, новинки кинопроката, горячие новинки

Модератор: Модераторы видео

  • Статистика раздачи
Размер: 1.98 ГБ   |  Зарегистрирован: 19 фев 2017, 23:20   |   .torrent скачан: 3300 раз
Сидеров: 1427  [ 0 байт/сек ]     Личеров: 150  [ 0 байт/сек ]  
Список файлов : Кто скачал : Раздают : Скачивают : Кто благодарил : История : Не раздающие : Запрашивали сидеров : Внешние трекеры 
  

Сопротивление воздуха / La résistance de l'air (2015) BDRip 720p | P

Сообщение Админ » 19 фев 2017, 23:20

Информация о фильме
Год выхода: 2015
Жанр: драма
Режиссер: Фред Гривуа
В ролях: Реда Катеб, Людивин Санье, Йохан Хелденберг, Чеки Карио, Паскаль Демолон, Лор де Клермон-Тоннер, Сильви Дегрис, Юбер Сен-Макари, Патрис Гийен

О фильме:
Трогательная бельгийская кинокартина, созданная при поддержке французских режиссёров, знакомит нас с судьбой Винсента – умелого стрелка, который неоднократно становился чемпионом в соревнованиях по стрельбе из пневматической винтовки. Герой фильма «Сопротивление воздуха» ведёт спокойный образ жизни вместе со своей женой и дочерью. Но идиллия прекращается в тот момент, когда их семья начинает испытывать финансовые трудности. Новые проблемы заставляют мужчину пересмотреть своё отношение ко многим вещам. Он понимает, что должен сделать всё возможное, чтобы вернуть утраченное семейное равновесие. Когда Винсент познакомился на стрельбище с загадочным человеком по имени Рено, он уже пришёл к внутреннему согласию с самим собой и был уверен, что готов взяться за любую работу. Новый знакомый героя как раз собирается предложить ему прекрасную возможность заработать неплохие деньги. Для этого мужчина предлагает талантливому стрелку заключить с ним контракт, который станет для нуждающегося в деньгах Винсента прекрасным выходом из финансового кризиса. Герой незамедлительно соглашается, даже не подозревая, какой именно ценой ему придётся решать проблемы своей семьи...



Выпущено: Франция, Бельгия / Iconoclast, Gaumont, Canal+
Продолжительность: 01:38:31
Перевод: Профессиональный многоголосый закадровый

Файл
Качество: BDRip 720p [BD-Remux 1080p HDclub]
Формат: MKV
Видео: 1280x536 at 24.000 fps (True24p), crf=18.0, ~3500 kbps
Аудио: 48 kHz, AC3, 2/0 (L,R) ch, ~384.00 kbps
Субтитры: нет



General
Unique ID : 205790198759284721066843366780030108502 (0x9AD1C027A96A738DFFEAA24357774356)
Complete name : F:FILMSСопротивление воздуха.(2015).BLU-RAY.720p.[-=DoMiNo=-].mkv
Format : Matroska
Format version : Version 4 / Version 2
File size : 1.98 GiB
Duration : 1 h 38 min
Overall bit rate : 2 876 kb/s
Movie name : Сопротивление воздуха
Deion : Винсент, чемпион по стрельбе из винтовки, запутывается в личных проблемах и внезапно получает неожиданно выгодное предложение.
Writing application : XviD4PSP 7.0.355 DAILY
Writing library : Lavf57.41.100 / Lavf57.41.100
Attachments : poster.jpg
ACTORS : Реда Катеб, Людивин Санье, Йохан Хелденберг, Чеки Карио, Паскаль Демолон, Blanche Hemada Costoso, Лор де Клермон-Тоннер, Сильви Дегрис, Юбер Сен-Макари, Патрис Гийен, Лахсен Эль Мазузи, Эммануэль Бонами, Milo Chiarini, Маттео Капелли, Manuel Guillot, Эдит Ле Мерди, Jean-Philippe Grivois, Бенжамин Бакле, Romain Bisseret, Тома Бидеген, Stella Mancini, Уолтер Шноркелл, Сабина Кроссен, Паскаль Провост, Cyril Damet, Philippe Patois, Кристоф Дэвис, Séverine Poupin, Damien Charbit, Дэмиен Боннар, Negar Hashemi, Philippe Sévenian, Youssef Sahraoui, Камилль Кушнер, Jehon Gorani, Kurt Standaert, Гвендолин Гурвенек, Себастьян Сисак
COMPOSER : Евгений Гальперин, Саша Гальперин
COUNTRY : Франция, Бельгия
DATE : 2015
DIRECTOR : Fred Grivois
ENCODING_INFO : MATROSKA,WEBM > MKV 720p / H264 > X264 CRF 18.0 Slower / AC3 > COPY Безопасное
GENRE : драма
HD_VIDEO : 1
IMDB_RATING : 5.80
ITUNEXTC : ru-movie|18+|400|
MEDIA_TYPE : 9
ORIGINAL_ACTORS : Reda Kateb, Ludivine Sagnier, Johan Heldenbergh, Tchéky Karyo, Pascal Demolon, Laure de Clermont-Tonnerre (в титрах: Laure de Clermont), Sylvie Degryse, Hubert Saint-Macary, Patrice Guillain, Lahcen Elmazouzi, Emmanuel Bonami, Matteo Capelli, Édith Le Merdy, Benjamin Baclet, Thomas Bidegain, Walter Shnorkell (в титрах: Walterz Shnorkell), Sabine Crossen, Pascal Provost, Christophe Davis (в титрах: Davis Christophe), (в титрах: Séverine Poupin Vêque), Damien Bonnard, Camille Kouchner, Gwendolyn Gourvenec, Sebastien Sisak
ORIGINAL_TITLE : La résistance de l'air
PRODUCER : Чарльз Антониоз, Mourad Belkeddar, Жан Дюамель, Сидони Дюма, Николас Лермитт, Надя Хамлиши, Адриан Политовски, Жюльен Соль, Жиль Ватеркейн
RATING : 5.637
SYNOPSIS : Винсент, чемпион по стрельбе из винтовки, запутывается в личных проблемах и внезапно получает неожиданно выгодное предложение.
WRITER : Тома Бидеген, Ноэ Дебре

Video
ID : 1
Format : AVC
Format/Info : Advanced Video Codec
Format profile : [email protected]
Format settings, CABAC : Yes
Format settings, ReFrames : 9 frames
Codec ID : V_MPEG4/ISO/AVC
Duration : 1 h 38 min
Bit rate : 2 435 kb/s
Width : 1 280 pixels
Height : 536 pixels
Display aspect ratio : 2.40:1
Frame rate mode : Constant
Frame rate : 24.000 FPS
Color space : YUV
Chroma subsampling : 4:2:0
Bit depth : 8 bits
Scan type : Progressive
Bits/(Pixel*Frame) : 0.148
Stream size : 1.68 GiB (85%)
Title : BLU-RAY_720p_RIP_BY_-=DoMiNo=-
Writing library : x264 core 148 r2762M 90a61ec
Encoding settings : cabac=1 / ref=9 / deblock=1:-3:-3 / analyse=0x3:0x133 / me=umh / subme=11 / psy=1 / psy_rd=1.00:0.10 / mixed_ref=1 / me_range=48 / chroma_me=1 / trellis=2 / 8x8dct=1 / cqm=0 / deadzone=21,11 / fast_pskip=0 / chroma_qp_offset=-3 / threads=5 / lookahead_threads=1 / sliced_threads=0 / nr=0 / decimate=1 / interlaced=0 / bluray_compat=0 / constrained_intra=0 / bframes=10 / b_pyramid=2 / b_adapt=2 / b_bias=0 / direct=3 / weightb=1 / open_gop=0 / weightp=2 / keyint=240 / keyint_min=24 / scenecut=40 / intra_refresh=0 / rc=crf / mbtree=0 / crf=18.0 / qcomp=0.60 / qpmin=0 / qpmax=69 / qpstep=4 / ip_ratio=1.40 / pb_ratio=1.30 / aq=1:1.00
Default : Yes
Forced : No
DURATION : 01:38:31.292000000

Audio
ID : 2
Format : AC-3
Format/Info : Audio Coding 3
Mode extension : CM (complete main)
Format settings, Endianness : Big
Codec ID : A_AC3
Duration : 1 h 38 min
Bit rate mode : Constant
Bit rate : 384 kb/s
Channel(s) : 2 channels
Channel positions : Front: L R
Sampling rate : 48.0 kHz
Frame rate : 31.250 FPS (1536 spf)
Bit depth : 16 bits
Compression mode : Lossy
Stream size : 271 MiB (13%)
Title : RUS_MVO
Language : Russian
Default : Yes
Forced : No
DURATION : 01:38:31.360000000

Menu
00:00:00.000 : :Глава 1
00:06:08.739 : :Глава 2
00:15:21.292 : :Глава 3
00:25:43.542 : :Глава 4
00:35:20.253 : :Глава 5
00:47:02.458 : :Глава 6
00:57:25.249 : :Глава 7
01:08:21.667 : :Глава 8
01:18:32.955 : :Глава 9
01:28:43.680 : :Глава 10
   
Торрент: Зарегистрирован [19 фев 2017, 23:20] Скачать торрент
Скачать торрент
О MediaGet
[ Размер 20.72 КБ / Просмотров 81 ]

Статус:
 
Приватный: Нет (DHT включён)
Размер: 1.98 ГБ (2 125 410 762 байт)
   
Аватара пользователя

Администратор
Администратор
 
Раздал: 2.33 ПБ
Скачал: 1.02 ПБ
Ратио: 2.281
Сообщения: 3719
Зарегистрирован: 07 май 2010, 17:29
Medals: 1
Лучший релиз за месяц (1)
  • Личное сообщение
  • ICQ

  • Похожие торренты
    Ответы
    Просмотры
    Последнее сообщение

Вернуться в Фильмы 2016 (новинки)

Кто сейчас на конференции

Зарегистрированные пользователи: fas28

Ресурс не предоставляет электронные версии произведений, а занимается лишь коллекционированием и каталогизацией ссылок, присылаемых и публикуемых на форуме нашими читателями. Если вы являетесь правообладателем какого-либо представленного материала и не желаете чтобы ссылка на него находилась в нашем каталоге, свяжитесь с нами и мы незамедлительно удалим её. Файлы для обмена на трекере предоставлены пользователями сайта, и администрация не несёт ответственности за их содержание. Просьба не заливать файлы, защищенные авторскими правами, а также файлы нелегального содержания!
cron