По соображениям совести / Hacksaw Ridge (2016) BDRip 1080p | L, A скачать торрент

Киноновинки, новинки кинопроката, горячие новинки

Модератор: Модераторы видео

  • Статистика раздачи
Размер: 9 ГБ   |  Зарегистрирован: 17 фев 2017, 02:13   |   .torrent скачан: 2958 раз
Сидеров: 1376  [ 0 байт/сек ]     Личеров: 235  [ 0 байт/сек ]  
Список файлов : Кто скачал : Раздают : Скачивают : Кто благодарил : История : Не раздающие : Запрашивали сидеров : Внешние трекеры 
  

По соображениям совести / Hacksaw Ridge (2016) BDRip 1080p | L, A

Сообщение Админ » 17 фев 2017, 02:13

Информация о фильме
Название: По соображениям совести
Оригинальное название: Hacksaw Ridge
Год выхода: 2016
Жанр: драма, военный, история
Режиссер: Мэл Гибсон
В ролях: Эндрю Гарфилд, Ричард Пирос, Джейкоб Уорнер, Мило Гибсон, Дарси Брайс, Роман Геррьеро, Джеймс Лагтон, Касия Стелмах, Хьюго Уивинг, Рэйчел Гриффитс

О фильме:
Медик американской армии времён Второй Мировой войны Дезмонд Досс, служивший во время битвы за Окинаву, отказывается убивать людей и становится первым идейным уклонистом в американской истории, удостоенным Медали Почёта.

Страна: Австралия, США
Студия: Cross Creek Pictures, Demarest Media, IM Global
Продолжительность: 02:19:19
Перевод: Многоголосый закадровый ["Paradox" & Omskbird records], Авторский (одноголосый, закадровый) (Д.Есарев)

Файл
Кодек: MPEG4 Video (H264)
Качество: BDRip 1080p
Видео: 1920x802, 7525 Kbps, 23.976fp
Звук:
Аудио 1: AC3, 6 ch, 640 kbps - Русский, ["Paradox" & Omskbird records]
Аудио 2: AC3, 6 ch, 448 kbps - Русский, Д.Есарев
Аудио 3: AC3, 6 ch, 640 kbps - Английский
Субтитры: Русские (полные), Английские (полные,SDH)

Семпл
x264 [info]: frame I:1676 Avg QP:13.76 size:237599
x264 [info]: frame P:52810 Avg QP:17.04 size: 69198
x264 [info]: frame B:145939 Avg QP:18.47 size: 26042

Общее
Уникальный идентификатор : 214530171554839544313760655602215427349 (0xA1650215478E49ACBC768A83AABA1D15)
Полное имя : Hacksaw Ridge.2016.BDRip.1080p.mkv
Формат : Matroska
Версия формата : Version 2
Размер файла : 9,00 Гбайт
Продолжительность : 2 ч. 19 м.
Общий поток : 9246 Кбит/сек
Название фильма : Hacksaw Ridge.2016.BDRip.1080p
Дата кодирования : UTC 2017-02-16 13:57:38
Программа кодирования : mkvmerge v4.0.0 ('The Stars were mine') сборка от Jun 6 2010 16:18:42
Библиотека кодирования : libebml v1.0.0 + libmatroska v1.0.0

Видео
Идентификатор : 1
Формат : AVC
Формат/Информация : Advanced Video Codec
Профиль формата : [email protected]
Параметр CABAC формата : Да
Параметр ReFrames формата : 5 кадров
Идентификатор кодека : V_MPEG4/ISO/AVC
Продолжительность : 2 ч. 19 м.
Битрейт : 7525 Кбит/сек
Ширина : 1920 пикселей
Высота : 802 пикселя
Соотношение сторон : 2,40:1
Режим частоты кадров : Постоянный
Частота кадров : 23,976 (23976/1000) кадра/сек
Цветовое пространство : YUV
Субдискретизация насыщенности : 4:2:0
Битовая глубина : 8 бит
Тип развёртки : Прогрессивная
Бит/(Пиксели*Кадры) : 0.204
Размер потока : 7,14 Гбайт (79%)
Заголовок : rip by -=walledol=-
Библиотека кодирования : x264 core 148 r2744 b97ae06
Настройки программы : cabac=1 / ref=5 / deblock=1:-3:-3 / analyse=0x3:0x133 / me=umh / subme=11 / psy=1 / psy_rd=1.00:0.03 / mixed_ref=1 / me_range=32 / chroma_me=1 / trellis=2 / 8x8dct=1 / cqm=0 / deadzone=21,11 / fast_pskip=0 / chroma_qp_offset=-3 / threads=6 / lookahead_threads=1 / sliced_threads=0 / nr=0 / decimate=1 / interlaced=0 / bluray_compat=0 / constrained_intra=0 / bframes=9 / b_pyramid=2 / b_adapt=2 / b_bias=0 / direct=3 / weightb=1 / open_gop=0 / weightp=2 / keyint=240 / keyint_min=23 / scenecut=40 / intra_refresh=0 / rc_lookahead=60 / rc=2pass / mbtree=1 / bitrate=7525 / ratetol=1.0 / qcomp=0.60 / qpmin=0 / qpmax=69 / qpstep=4 / cplxblur=20.0 / qblur=0.5 / ip_ratio=1.40 / aq=3:1.00
Язык : English
Default : Нет
Forced : Нет

Аудио #1
Идентификатор : 2
Формат : AC-3
Формат/Информация : Audio Coding 3
Расширение режима : CM (complete main)
Параметр Endianness формата : Big
Идентификатор кодека : A_AC3
Продолжительность : 2 ч. 19 м.
Вид битрейта : Постоянный
Битрейт : 640 Кбит/сек
Каналы : 6 каналов
Расположение каналов : Front: L C R, Side: L R, LFE
Частота : 48,0 КГц
Частота кадров : 31,250 кадров/сек (1536 spf)
Битовая глубина : 16 бит
Метод сжатия : С потерями
Размер потока : 638 Мбайт (7%)
Заголовок : MVO [Paradox & Omskbird record]
Язык : Russian
Default : Да
Forced : Нет

Аудио #2
Идентификатор : 3
Формат : AC-3
Формат/Информация : Audio Coding 3
Расширение режима : CM (complete main)
Параметр Endianness формата : Big
Идентификатор кодека : A_AC3
Продолжительность : 2 ч. 19 м.
Вид битрейта : Постоянный
Битрейт : 448 Кбит/сек
Каналы : 6 каналов
Расположение каналов : Front: L C R, Side: L R, LFE
Частота : 48,0 КГц
Частота кадров : 31,250 кадров/сек (1536 spf)
Битовая глубина : 16 бит
Метод сжатия : С потерями
Размер потока : 446 Мбайт (5%)
Заголовок : Есарев
Язык : Russian
Default : Нет
Forced : Нет

Аудио #3
Идентификатор : 4
Формат : AC-3
Формат/Информация : Audio Coding 3
Расширение режима : CM (complete main)
Параметр Endianness формата : Big
Идентификатор кодека : A_AC3
Продолжительность : 2 ч. 19 м.
Вид битрейта : Постоянный
Битрейт : 640 Кбит/сек
Каналы : 6 каналов
Расположение каналов : Front: L C R, Side: L R, LFE
Частота : 48,0 КГц
Частота кадров : 31,250 кадров/сек (1536 spf)
Битовая глубина : 16 бит
Метод сжатия : С потерями
Размер потока : 638 Мбайт (7%)
Язык : English
Default : Нет
Forced : Нет

Текст #1
Идентификатор : 5
Формат : UTF-8
Идентификатор кодека : S_TEXT/UTF8
Идентификатор кодека/Информация : UTF-8 Plain Text
Заголовок : Full
Язык : Russian
Default : Нет
Forced : Нет

Текст #2
Идентификатор : 6
Формат : UTF-8
Идентификатор кодека : S_TEXT/UTF8
Идентификатор кодека/Информация : UTF-8 Plain Text
Заголовок : Full
Язык : English
Default : Нет
Forced : Нет

Текст #3
Идентификатор : 7
Формат : UTF-8
Идентификатор кодека : S_TEXT/UTF8
Идентификатор кодека/Информация : UTF-8 Plain Text
Заголовок : SDH
Язык : English
Default : Нет
Forced : Нет

Меню
00:00:00.000 : en:Chapter 01
00:09:18.766 : en:Chapter 02
00:18:41.995 : en:Chapter 03
00:26:34.509 : en:Chapter 04
00:33:00.561 : en:Chapter 05
00:40:04.151 : en:Chapter 06
00:50:07.212 : en:Chapter 07
00:57:01.543 : en:Chapter 08
01:04:21.649 : en:Chapter 09
01:17:50.207 : en:Chapter 10
01:23:58.700 : en:Chapter 11
01:31:21.726 : en:Chapter 12
01:39:02.811 : en:Chapter 13
01:46:07.569 : en:Chapter 14
01:59:48.306 : en:Chapter 15
02:07:13.292 : en:Chapter 16

Рип walledol
За дорожку "Paradox" & Omskbird records, спасибо Wety
Перевод Д.Есаревa доступен благодаря пользователям Переулка Переводмана igrok2012, Aniskin50, mv73, Shrooms, Pr0peLLer, Wa1ker, Star Dog, ZeDOK, shagrath88, Epiphone_the_beard, sswwiixx, Литти, RafL, Loki1982, Прохожий, mestereo2110, СерП, Volshebnik
Работа со звуком - Переводман

   
Торрент: Зарегистрирован [17 фев 2017, 02:13] За каждые 2 ГБ. аплоада (сидирования) этого торрента начисляется бонус: 0.001 Скачать торрент
Скачать торрент
О MediaGet
[ Размер 45.87 КБ / Просмотров 67 ]

Статус:
 
Приватный: Нет (DHT включён)
Размер: 9 ГБ (9 661 581 141 байт)
   
Аватара пользователя

Администратор
Администратор
 
Раздал: 2.33 ПБ
Скачал: 1.02 ПБ
Ратио: 2.281
Сообщения: 3719
Зарегистрирован: 07 май 2010, 17:29
Medals: 1
Лучший релиз за месяц (1)
  • Личное сообщение
  • ICQ

  • Похожие торренты
    Ответы
    Просмотры
    Последнее сообщение

Вернуться в Фильмы 2016 (новинки)

Кто сейчас на конференции

Зарегистрированные пользователи: fas28

Ресурс не предоставляет электронные версии произведений, а занимается лишь коллекционированием и каталогизацией ссылок, присылаемых и публикуемых на форуме нашими читателями. Если вы являетесь правообладателем какого-либо представленного материала и не желаете чтобы ссылка на него находилась в нашем каталоге, свяжитесь с нами и мы незамедлительно удалим её. Файлы для обмена на трекере предоставлены пользователями сайта, и администрация не несёт ответственности за их содержание. Просьба не заливать файлы, защищенные авторскими правами, а также файлы нелегального содержания!
cron