Другой мир: Войны крови / Underworld: Blood Wars (2016) WEB-DL 1080p от ExKinoRay | L скачать торрент

Киноновинки, новинки кинопроката, горячие новинки

Модератор: Модераторы видео

  • Статистика раздачи
Размер: 3.42 ГБ   |  Зарегистрирован: 13 фев 2017, 19:50   |   .torrent скачан: 35423 раз
Сидеров: 26407  [ 0 байт/сек ]     Личеров: 7757  [ 0 байт/сек ]  
Список файлов : Кто скачал : Раздают : Скачивают : Кто благодарил : История : Не раздающие : Запрашивали сидеров : Внешние трекеры 
  

Другой мир: Войны крови / Underworld: Blood Wars (2016) WEB-DL 1080p от ExKinoRay | L

Сообщение Админ » 13 фев 2017, 19:50

Информация о фильме
Название: Другой мир: Войны крови
Оригинальное название: Underworld: Blood Wars
Год выхода: 2016
Жанр: Ужасы, боевик
Режиссер: Анна Ферстер
В ролях: Кейт Бекинсейл, Тео Джеймс, Лара Пулвер, Чарльз Дэнс, Тобайас Мензис, Брэдли Джеймс, Алисия Вела-Бэйли, Трент Гарретт, Дэйзи Хэд, Джеймс Фолкнер, Оливер Старк

О фильме:
И вновь продолжается бой, и сердцу тревожно в груди... Недобитые остатки утонченной аристократии, сосущей кровь из трудового народа, из последних сил держат оборону в каком-то задрипанном поместье, обставленном с безобразной роскошью. Их атакует местная группировка байкеров, борющихся за свое место под солнцем. И тех и других возглавляют новые лидеры взамен старых, изрубленных топором. Все ищут Селин и ее дочь Еву, ведь их кровь позволит любой из сторон получить решающее преимущество в борьбе за передел сфер влияния.


Страна: США
Студия: Lakeshore Entertainment, Screen Gems, Sketch Films
Продолжительность: 01:31:49
Перевод: Любительский многоголосый (закадровый) | Paradox&Omsbird

Файл
Качество: WEB-DL 1080p
Видео: MPEG-4 AVC, 1920x796, 4557 Kbit/s, 23.976 fps
Звук:
Аудио #01: 48 kHz, AC3, 5.1, 384 Kbps | Любительский многоголосый (закадровый)|
Аудио #02: 48 kHz, AC3, 5.1, 384 kbps | Оригинал |
Субтитры: Английские


General
Unique ID : 235562498664107668441096582557289061980 (0xB137AFDEEAAA5833A64B43BFCA7A9E5C)
Complete name : G:VideoUnderworld.Blood.Wars.2016.WEB-DL.1080p.ExKinoRay.mkv
Format : Matroska
Format version : Version 4 / Version 2
File size : 3.42 GiB
Duration : 1 h 31 min
Overall bit rate : 5 326 kb/s
Encoded date : UTC 2017-02-13 02:49:19
Writing application : mkvmerge v8.3.0 ('Over the Horizon') 64bit
Writing library : libebml v1.3.1 + libmatroska v1.4.2

Video
ID : 1
Format : AVC
Format/Info : Advanced Video Codec
Format profile : [email protected]
Format settings, CABAC : Yes
Format settings, ReFrames : 5 frames
Codec ID : V_MPEG4/ISO/AVC
Duration : 1 h 31 min
Bit rate : 4 557 kb/s
Width : 1 920 pixels
Height : 796 pixels
Display aspect ratio : 2.40:1
Frame rate mode : Constant
Frame rate : 23.976 (23976/1000) FPS
Color space : YUV
Chroma subsampling : 4:2:0
Bit depth : 8 bits
Scan type : Progressive
Bits/(Pixel*Frame) : 0.124
Stream size : 2.92 GiB (86%)
Language : English
Default : Yes
Forced : No
Color range : Limited
Color primaries : BT.709
Transfer characteristics : BT.709
Matrix coefficients : BT.709

Audio #1
ID : 2
Format : AC-3
Format/Info : Audio Coding 3
Mode extension : CM (complete main)
Format settings, Endianness : Big
Codec ID : A_AC3
Duration : 1 h 31 min
Bit rate mode : Constant
Bit rate : 384 kb/s
Channel(s) : 6 channels
Channel positions : Front: L C R, Side: L R, LFE
Sampling rate : 48.0 kHz
Frame rate : 31.250 FPS (1536 spf)
Bit depth : 16 bits
Compression mode : Lossy
Stream size : 252 MiB (7%)
Title : MVO
Language : Russian
Default : Yes
Forced : No

Audio #2
ID : 3
Format : AC-3
Format/Info : Audio Coding 3
Mode extension : CM (complete main)
Format settings, Endianness : Big
Codec ID : A_AC3
Duration : 1 h 31 min
Bit rate mode : Constant
Bit rate : 384 kb/s
Channel(s) : 6 channels
Channel positions : Front: L C R, Side: L R, LFE
Sampling rate : 48.0 kHz
Frame rate : 31.250 FPS (1536 spf)
Bit depth : 16 bits
Compression mode : Lossy
Stream size : 251 MiB (7%)
Title : Original
Language : English
Default : No
Forced : No

Text
ID : 4
Format : UTF-8
Codec ID : S_TEXT/UTF8
Codec ID/Info : UTF-8 Plain Text
Duration : 1 h 30 min
Bit rate : 42 b/s
Count of elements : 820
Stream size : 27.9 KiB (0%)
Title : Full
Language : English
Default : No
Forced : No

Menu
00:00:00.000 : en:1
00:04:29.477 : en:2
00:09:25.022 : en:3
00:13:59.004 : en:4
00:18:55.008 : en:5
00:24:26.089 : en:6
00:31:14.956 : en:7
00:36:25.850 : en:8
00:42:16.033 : en:9
00:47:36.645 : en:10
00:52:21.304 : en:11
00:58:58.326 : en:12
01:04:30.991 : en:13
01:08:51.126 : en:14
01:13:46.129 : en:15
01:20:07.718 : en:16




Релиз от: Автор релиза:
   
Торрент: Зарегистрирован [13 фев 2017, 19:50] Скачать торрент
Скачать торрент
О MediaGet
[ Размер 18.07 КБ / Просмотров 137 ]

Статус:
 
Приватный: Нет (DHT включён)
Размер: 3.42 ГБ (3 668 092 031 байт)
   
Аватара пользователя

Администратор
Администратор
 
Раздал: 2.33 ПБ
Скачал: 1.02 ПБ
Ратио: 2.281
Сообщения: 3719
Зарегистрирован: 07 май 2010, 17:29
Medals: 1
Лучший релиз за месяц (1)
  • Личное сообщение
  • ICQ

Вернуться в Фильмы 2016 (новинки)

Кто сейчас на конференции

Зарегистрированные пользователи: fas28

Ресурс не предоставляет электронные версии произведений, а занимается лишь коллекционированием и каталогизацией ссылок, присылаемых и публикуемых на форуме нашими читателями. Если вы являетесь правообладателем какого-либо представленного материала и не желаете чтобы ссылка на него находилась в нашем каталоге, свяжитесь с нами и мы незамедлительно удалим её. Файлы для обмена на трекере предоставлены пользователями сайта, и администрация не несёт ответственности за их содержание. Просьба не заливать файлы, защищенные авторскими правами, а также файлы нелегального содержания!
cron