Парень с сумкой / Bag Man (2014) WEB-DLRip-AVC | L2 скачать торрент

Киноновинки, новинки кинопроката, горячие новинки

Модератор: Модераторы видео

  • Статистика раздачи
Размер: 171.21 МБ   |  Зарегистрирован: 07 фев 2017, 21:29   |   .torrent скачан: 0 раз
Сидеров: 0  [ 0 байт/сек ]     Личеров: 0  [ 0 байт/сек ]  
Список файлов : Кто скачал : Раздают : Скачивают : Кто благодарил : История : Не раздающие : Запрашивали сидеров : Внешние трекеры 
  

Парень с сумкой / Bag Man (2014) WEB-DLRip-AVC | L2

Сообщение Админ » 07 фев 2017, 21:29

Парень с сумкой / Bag Man

Страна: США
Производство: The Mill
Год выпуска: 2014
Жанр: короткометражка, фантастика, боевик, драма
Продолжительность: 00:14:36

Режиссеры: Джонатан Бэйкер, Джош Бэйкер
Авторы сценария: Джонатан Бэйкер, Джош Бэйкер

В ролях: Джуда Беллами, Рошана Симмонс, Майкл Фредерик, П.Дж. Соско, Таффи Куестелл, Мэтти Блейк, Тео Рубинштейн, Пабло Гонзалес

Описание: Молодой парень из Гарлема с большой сумкой на плече отправляется в путешествие по окрестностям Нью-Йорка. Его намерения не ясны, но вскоре становится ясно, что он скрывает в свой сумке…



Перевод: Любительский (двухголосый, закадровый) | DeeAFilm Studio
Субтитры: нет


Качество: WEB-DLRip-AVC
Формат: МКV
Видео кодек: AVC
Аудио кодек: AAC
Видео: 968x364 (2.659), 23.976 fps, MPEG-4 AVC ~1 230 kbps avg
Аудио №1: 48.0 kHz, Advanced Audio Codec LC, 2/0 (L,R) ch, ~149 kbps | RUS
Аудио №2: 48.0 kHz, Advanced Audio Codec LC, 2/0 (L,R) ch, ~256 kbps | ENG

Дата премьеры (мир): 10 сентября 2014



General
Уникальный идентификатор : 253142663057880502810237831529860739976 (0xBE7180E5474248BAB7E7A36735E4B388)
Полное имя : Bag Man.2014.WEB-DLRip-AVC.mkv
Формат : Matroska
Версия формата : Version 4 / Version 2
Размер файла : 171 Мбайт
Продолжительность : 14 м.
Общий поток : 1638 Кбит/сек
Название фильма : Bag Man.2014.WEB-DLRip-AVC -Azureus-
Дата кодирования : UTC 2017-02-04 18:27:26
Программа кодирования : mkvmerge v9.4.0 ('Knurl') 64bit
Библиотека кодирования : libebml v1.3.4 + libmatroska v1.4.5

Видео
Идентификатор : 1
Формат : AVC
Формат/Информация : Advanced Video Codec
Профиль формата : [email protected]
Параметр CABAC формата : Да
Параметр ReFrames формата : 9 кадров
Идентификатор кодека : V_MPEG4/ISO/AVC
Продолжительность : 14 м.
Битрейт : 1230 Кбит/сек
Ширина : 968 пикселей
Высота : 364 пикселя
Соотношение сторон : 2,659
Режим частоты кадров : Постоянный
Частота кадров : 23,976 (24000/1001) кадра/сек
Цветовое пространство : YUV
Субдискретизация насыщенности : 4:2:0
Битовая глубина : 8 бит
Тип развёртки : Прогрессивная
Бит/(Пиксели*Кадры) : 0.146
Размер потока : 129 Мбайт (75%)
Библиотека кодирования : x264 core 148 r2744kMod b97ae06
Настройки программы : cabac=1 / ref=9 / deblock=1:-2:-1 / analyse=0x3:0x133 / me=umh / subme=11 / psy=1 / fade_compensate=0.00 / psy_rd=1.00:0.05 / mixed_ref=1 / me_range=32 / chroma_me=1 / trellis=2 / 8x8dct=1 / cqm=0 / deadzone=21,11 / fast_pskip=0 / chroma_qp_offset=-3 / threads=6 / lookahead_threads=1 / sliced_threads=0 / nr=0 / decimate=1 / interlaced=0 / bluray_compat=0 / constrained_intra=0 / bframes=16 / b_pyramid=2 / b_adapt=2 / b_bias=0 / direct=3 / weightb=1 / open_gop=0 / weightp=2 / keyint=250 / keyint_min=23 / scenecut=40 / intra_refresh=0 / rc_lookahead=70 / rc=crf / mbtree=0 / crf=18.0000 / qcomp=0.60 / qpmin=0 / qpmax=69 / qpstep=4 / vbv_maxrate=50000 / vbv_bufsize=62500 / crf_max=0.0 / nal_hrd=none / filler=0 / ip_ratio=1.40 / pb_ratio=1.30 / aq=3:1.00
Default : Да
Forced : Нет
Цветовой диапазон : Limited
Основные цвета : BT.709
Характеристики трансфера : BT.709
Коэффициенты матрицы : BT.709

Аудио #1
Идентификатор : 2
Формат : AAC
Формат/Информация : Advanced Audio Codec
Профиль формата : LC
Идентификатор кодека : A_AAC
Продолжительность : 14 м.
Битрейт : 149 Кбит/сек
Каналы : 2 канала
Расположение каналов : Front: L R
Частота : 48,0 КГц
Частота кадров : 46,875 кадров/сек (1024 spf)
Метод сжатия : С потерями
Задержка видео : 9 мс.
Размер потока : 15,6 Мбайт (9%)
Заголовок : MVO - DeeAFilm Studio
Язык : Russian
Default : Да
Forced : Нет

Аудио #2
Идентификатор : 3
Формат : AAC
Формат/Информация : Advanced Audio Codec
Профиль формата : LC
Идентификатор кодека : A_AAC
Продолжительность : 14 м.
Битрейт : 256 Кбит/сек
Каналы : 2 канала
Расположение каналов : Front: L R
Частота : 48,0 КГц
Частота кадров : 46,875 кадров/сек (1024 spf)
Метод сжатия : С потерями
Размер потока : 26,8 Мбайт (16%)
Заголовок : ENG
Язык : English
Default : Нет
Forced : Нет
   
Торрент: Зарегистрирован [07 фев 2017, 21:29] Скачать торрент
Скачать торрент
О MediaGet
[ Размер 14.3 КБ / Просмотров 35 ]

Статус:
 
Приватный: Нет (DHT включён)
Размер: 171.21 МБ (179 526 011 байт)
   
Аватара пользователя

Администратор
Администратор
 
Раздал: 2.33 ПБ
Скачал: 1.02 ПБ
Ратио: 2.281
Сообщения: 3719
Зарегистрирован: 07 май 2010, 17:29
Medals: 1
Лучший релиз за месяц (1)
  • Личное сообщение
  • ICQ

  • Похожие торренты
    Ответы
    Просмотры
    Последнее сообщение

Вернуться в Фильмы 2016 (новинки)

Кто сейчас на конференции

Зарегистрированные пользователи: fas28

Ресурс не предоставляет электронные версии произведений, а занимается лишь коллекционированием и каталогизацией ссылок, присылаемых и публикуемых на форуме нашими читателями. Если вы являетесь правообладателем какого-либо представленного материала и не желаете чтобы ссылка на него находилась в нашем каталоге, свяжитесь с нами и мы незамедлительно удалим её. Файлы для обмена на трекере предоставлены пользователями сайта, и администрация не несёт ответственности за их содержание. Просьба не заливать файлы, защищенные авторскими правами, а также файлы нелегального содержания!
cron