Прибытие / Arrival (2016) WEB-DLRip | Paradox&OMSKBIRD скачать торрент

Киноновинки, новинки кинопроката, горячие новинки

Модератор: Модераторы видео

  • Статистика раздачи
Размер: 1.45 ГБ   |  Зарегистрирован: 01 фев 2017, 17:27   |   .torrent скачан: 40666 раз
Сидеров: 20424  [ 0 байт/сек ]     Личеров: 4006  [ 0 байт/сек ]  
Список файлов : Кто скачал : Раздают : Скачивают : Кто благодарил : История : Не раздающие : Запрашивали сидеров : Внешние трекеры 
  

Прибытие / Arrival (2016) WEB-DLRip | Paradox&OMSKBIRD

Сообщение Админ » 01 фев 2017, 17:27

Информация о фильме
Название: Прибытие
Оригинальное название: Arrival
Год выпуска: 2016
Страна: США
Жанр: фантастика, триллер, драма, детектив


Перевод: Любительский многоголосый [Paradox & OMSKBIRD]
Примечание: Релиз без рекламы
Продолжительность: 01:56:35

Режиссер: Дени Вильнёв
В ролях: Эми Адамс (Louise Banks), Джереми Реннер (Ian Donnelly), Майкл Стулбарг (Agent Halpern), Форест Уитакер (Colonel Weber), Сангита Патель (Newscaster 1), Ци Ма (General Shang), Эбигейл Пнёвски (Hannah (8 yrs. old)), Марк О’Брайэн (Captain Marks), Рут Чианг (Chinese Scientist), Джейдин Мэлоун (Hannah (6 yr old)), Анана Ридвальд (Danish Scientist), Натали Тибо (Gala Guest)


Описание:
Неожиданное появление неопознанных летающих объектов в разных точках планеты повергает мир в трепет. Намерения пришельцев не ясны - вооруженные силы всего мира приведены в полную боевую готовность, а лучшие умы человечества пытаются понять, как разговаривать с непрошенными гостями. Правительство обращается за помощью к лингвисту Луизе Бэнкс и физику Яну Доннели, чтобы предотвратить глобальную катастрофу и найти общий язык с пришельцами. Отныне судьба человечества находится в их руках.

Рейтинг:

MPAA: PG-13 - Детям до 13 лет просмотр не желателен

Качество: WEB-DLRip
Формат: AVI
Видео: XviD, 720x304 (2.40:1), 1381 kbps, 24 fps, 0,263 bpp
Аудио: AC3 / 5.1 / 48 kHz / 384 kbps /
Сэмпл


Общее
Полное имя : E:Arrival.2016.WEB-DLRip.PO.avi
Формат : AVI
Формат/Информация : Audio Video Interleave
Размер файла : 1,45 Гбайт
Продолжительность : 1 ч. 56 м.
Общий поток : 1774 Кбит/сек
Название фильма : Arrival.2016.WEB-DL.XviD.AC3-FGT
Программа кодирования : VirtualDubMod 1.5.10.1 (build 2366/release)
Библиотека кодирования : VirtualDubMod build 2366/release
Примечание : Arrival.2016.WEB-DL.XviD.AC3-FGT

Видео
Идентификатор : 0
Формат : MPEG-4 Visual
Профиль формата : [email protected]
Параметр BVOP формата : Нет
Параметр QPel формата : Нет
Параметр GMC формата : Без точки перехода
Параметр матрицы формата : Default (H.263)
Идентификатор кодека : XVID
Идентификатор кодека/Подсказка : XviD
Продолжительность : 1 ч. 56 м.
Битрейт : 1382 Кбит/сек
Ширина : 720 пикселей
Высота : 304 пикселя
Соотношение сторон : 2,40:1
Частота кадров : 24,000 кадра/сек
Цветовое пространство : YUV
Субдискретизация насыщенности : 4:2:0
Битовая глубина : 8 бит
Тип развёртки : Прогрессивная
Метод сжатия : С потерями
Бит/(Пиксели*Кадры) : 0.263
Размер потока : 1,13 Гбайт (78%)
Библиотека кодирования : Lavc57.16.101

Аудио
Идентификатор : 1
Формат : AC-3
Формат/Информация : Audio Coding 3
Расширение режима : CM (complete main)
Параметр Endianness формата : Big
Идентификатор кодека : 2000
Продолжительность : 1 ч. 56 м.
Вид битрейта : Постоянный
Битрейт : 384 Кбит/сек
Каналы : 6 каналов
Расположение каналов : Front: L C R, Side: L R, LFE
Частота : 48,0 КГц
Частота кадров : 31,250 кадров/сек (1536 spf)
Битовая глубина : 16 бит
Метод сжатия : С потерями
Размер потока : 320 Мбайт (22%)
Выравнивание : Разделение по промежуткам
Продолжительность промежутка : 42 мс. (1,00 видеокадр)
Время предзагрузки промежутка : 512 мс.
   
Торрент: Зарегистрирован [01 фев 2017, 17:27] Скачать торрент
Скачать торрент
О MediaGet
[ Размер 15.41 КБ / Просмотров 70 ]

Статус:
 
Приватный: Нет (DHT включён)
Размер: 1.45 ГБ (1 551 683 584 байт)
   
Аватара пользователя

Администратор
Администратор
 
Раздал: 2.33 ПБ
Скачал: 1.02 ПБ
Ратио: 2.281
Сообщения: 3719
Зарегистрирован: 07 май 2010, 17:29
Medals: 1
Лучший релиз за месяц (1)
  • Личное сообщение
  • ICQ

  • Похожие торренты
    Ответы
    Просмотры
    Последнее сообщение

Вернуться в Фильмы 2016 (новинки)

Кто сейчас на конференции

Зарегистрированные пользователи: 132231

Ресурс не предоставляет электронные версии произведений, а занимается лишь коллекционированием и каталогизацией ссылок, присылаемых и публикуемых на форуме нашими читателями. Если вы являетесь правообладателем какого-либо представленного материала и не желаете чтобы ссылка на него находилась в нашем каталоге, свяжитесь с нами и мы незамедлительно удалим её. Файлы для обмена на трекере предоставлены пользователями сайта, и администрация не несёт ответственности за их содержание. Просьба не заливать файлы, защищенные авторскими правами, а также файлы нелегального содержания!
cron