28 панфиловцев (2016) BDRip 1080p от OlLanDGroup | Лицензия скачать торрент

Киноновинки, новинки кинопроката, горячие новинки

Модератор: Модераторы видео

  • Статистика раздачи
Размер: 9.12 ГБ   |  Зарегистрирован: 28 янв 2017, 13:00   |   .torrent скачан: 583 раз
Сидеров: 270  [ 0 байт/сек ]     Личеров: 129  [ 0 байт/сек ]  
Список файлов : Кто скачал : Раздают : Скачивают : Кто благодарил : История : Не раздающие : Запрашивали сидеров : Внешние трекеры 
  

28 панфиловцев (2016) BDRip 1080p от OlLanDGroup | Лицензия

Сообщение Админ » 28 янв 2017, 13:00

Информация о фильме

Оригинальное название: 28 панфиловцев
Год выпуска: 2016
Жанр: Военный, драма
Выпущено: Россия, 28 панфиловцев, Libyan Palette Studios
Режиссер: Ким Дружинин, Андрей Шальопа
В ролях: Александр Устюгов, Яков Кучеревский, Азамат Нигманов, Олег Фёдоров, Алексей Морозов, Антон Кузнецов, Алексей Лонгин, Максим Белбородов, Дмитрий Мурашев, Виталий Коваленко
О фильме: Осенью 1941-го года немецкие части, стоявшие возле Волоколамска, отделяло от Москвы каких-нибудь два часа по шоссе. Однако, на этом шоссе стояла 316-я стрелковая дивизия под командованием генерала И. В. Панфилова. Этот военачальник обладал настолько высоким авторитетом среди личного состава, что бойцы дивизии сами называли себя панфиловцами. А дивизию — панфиловской.

Файл

Качество: BDRip (1080p)
Видео: MPEG-4 AVC, 8671 Кбит/с, 1920x804, 24 кадр/с
Аудио: Русский (AC3, 6 ch, 640 Кбит/c), (DTS, 6 ch, 1509 Кбит/с)
Размер: 9.12 ГБ
Продолжительность: 02:00:38
Язык: Русский
Сохранены оригинальные чаптеры как на Blu-Ray.

x264 [info]: frame I:1021 Avg QP:14.98 size:199129
x264 [info]: frame P:48567 Avg QP:18.37 size: 77053
x264 [info]: frame B:124135 Avg QP:19.68 size: 31410
x264 [info]: consecutive B-frames: 4.0% 12.5% 12.5% 24.1% 17.6% 20.2% 6.5% 1.0% 0.9% 0.2% 0.6%
x264 [info]: mb I I16..4: 18.4% 49.4% 32.1%
x264 [info]: mb P I16..4: 8.1% 19.5% 10.3% P16..4: 27.9% 19.0% 5.4% 0.7% 0.0% skip: 9.0%
x264 [info]: mb B I16..4: 4.7% 6.1% 2.4% B16..8: 24.5% 17.8% 2.8% direct: 9.7% skip:32.1% L0:39.0% L1:37.9% BI:23.1%
x264 [info]: 8x8 transform intra:49.1% inter:47.4%
x264 [info]: direct mvs spatial:97.7% temporal:2.3%
x264 [info]: coded y,uvDC,uvAC intra: 76.7% 75.8% 38.1% inter: 33.9% 26.8% 6.4%
x264 [info]: i16 v,h,dc,p: 10% 14% 39% 37%
x264 [info]: i8 v,h,dc,ddl,ddr,vr,hd,vl,hu: 16% 16% 25% 6% 7% 7% 7% 7% 9%
x264 [info]: i4 v,h,dc,ddl,ddr,vr,hd,vl,hu: 30% 12% 30% 4% 6% 5% 5% 4% 5%
x264 [info]: i8c dc,h,v,p: 36% 33% 20% 12%
x264 [info]: Weighted P-Frames: Y:6.3% UV:1.5%
x264 [info]: ref P L0: 42.2% 14.5% 27.3% 6.8% 7.8% 1.3% 0.0%
x264 [info]: ref B L0: 79.0% 15.2% 4.5% 1.4%
x264 [info]: ref B L1: 95.1% 4.9%
x264 [info]: kb/s:8669.90


Общее
Уникальный идентификатор : 247601425253922892405639579983482265533 (0xBA464CC75B6EA250B3FBBF1C219D1FBD)
Полное имя : D:Загрузки28.Panfilovcev.2016.x264.BDRip.(1080p).OlLanDGroup.mkv
Формат : Matroska
Версия формата : Version 2
Размер файла : 9,12 Гбайт
Продолжительность : 2 ч. 0 м.
Общий поток : 10,8 Мбит/сек
Название фильма : 28 панфиловцев.2016.Rip by: ollan
Дата кодирования : UTC 2017-01-28 05:42:35
Программа кодирования : mkvmerge v5.6.0 ('Kenya Kane') built on May 27 2012 16:44:04
Библиотека кодирования : libebml v1.2.3 + libmatroska v1.3.0
Attachements : Cover - 28.Panfilovcev.png

Видео
Идентификатор : 1
Формат : AVC
Формат/Информация : Advanced Video Codec
Профиль формата : [email protected]
Параметр CABAC формата : Да
Параметр ReFrames формата : 5 кадров
Идентификатор кодека : V_MPEG4/ISO/AVC
Продолжительность : 2 ч. 0 м.
Битрейт : 8671 Кбит/сек
Ширина : 1920 пикселей
Высота : 804 пикселя
Соотношение сторон : 2,40:1
Режим частоты кадров : Постоянный
Частота кадров : 24,000 кадра/сек
Цветовое пространство : YUV
Субдискретизация насыщенности : 4:2:0
Битовая глубина : 8 бит
Тип развёртки : Прогрессивная
Бит/(Пиксели*Кадры) : 0.234
Размер потока : 7,13 Гбайт (78%)
Библиотека кодирования : x264 core 146 r2538 121396c
Настройки программы : cabac=1 / ref=5 / deblock=1:-3:-3 / analyse=0x3:0x133 / me=umh / subme=11 / psy=1 / psy_rd=0.01:0.08 / mixed_ref=1 / me_range=48 / chroma_me=1 / trellis=2 / 8x8dct=1 / cqm=0 / deadzone=21,11 / fast_pskip=0 / chroma_qp_offset=-2 / threads=12 / lookahead_threads=3 / sliced_threads=0 / nr=0 / decimate=0 / interlaced=0 / bluray_compat=0 / constrained_intra=0 / bframes=10 / b_pyramid=2 / b_adapt=2 / b_bias=0 / direct=3 / weightb=1 / open_gop=0 / weightp=2 / keyint=240 / keyint_min=23 / scenecut=40 / intra_refresh=0 / rc_lookahead=40 / rc=2pass / mbtree=0 / bitrate=8671 / ratetol=1.0 / qcomp=0.60 / qpmin=0 / qpmax=69 / qpstep=4 / cplxblur=20.0 / qblur=0.5 / vbv_maxrate=50000 / vbv_bufsize=62500 / nal_hrd=none / filler=0 / ip_ratio=1.40 / pb_ratio=1.30 / aq=1:1.00
Язык : Russian
Default : Да
Forced : Нет

Аудио #1
Идентификатор : 2
Формат : AC-3
Формат/Информация : Audio Coding 3
Расширение режима : CM (complete main)
Параметр Endianness формата : Big
Идентификатор кодека : A_AC3
Продолжительность : 2 ч. 0 м.
Вид битрейта : Постоянный
Битрейт : 640 Кбит/сек
Каналы : 6 каналов
Расположение каналов : Front: L C R, Side: L R, LFE
Частота : 48,0 КГц
Частота кадров : 31,250 кадров/сек (1536 spf)
Метод сжатия : С потерями
Размер потока : 552 Мбайт (6%)
Заголовок : Лицензия
Язык : Russian
Default : Да
Forced : Нет

Аудио #2
Идентификатор : 3
Формат : DTS
Формат/Информация : Digital Theater Systems
Режим : 16
Параметр Endianness формата : Big
Идентификатор кодека : A_DTS
Продолжительность : 2 ч. 0 м.
Вид битрейта : Постоянный
Битрейт : 1509 Кбит/сек
Каналы : 6 каналов
Расположение каналов : Front: L C R, Side: L R, LFE
Частота : 48,0 КГц
Частота кадров : 93,750 кадра/сек (512 spf)
Битовая глубина : 24 бит
Метод сжатия : С потерями
Размер потока : 1,27 Гбайт (14%)
Заголовок : Лицензия
Язык : Russian
Default : Нет
Forced : Нет

Меню
00:00:00.000 : ru:Chapter 01
00:01:24.375 : ru:Chapter 02
00:11:59.208 : ru:Chapter 03
00:26:15.791 : ru:Chapter 04
00:38:43.625 : ru:Chapter 05
00:55:16.416 : ru:Chapter 06
01:12:21.333 : ru:Chapter 07
01:25:35.500 : ru:Chapter 08
01:38:52.333 : ru:Chapter 09







   
Торрент: Зарегистрирован [28 янв 2017, 13:00] За каждые 2 ГБ. аплоада (сидирования) этого торрента начисляется бонус: 0.001 Скачать торрент
Скачать торрент
О MediaGet
[ Размер 23.8 КБ / Просмотров 54 ]

Статус:
 
Приватный: Нет (DHT включён)
Размер: 9.12 ГБ (9 791 896 156 байт)
   
Аватара пользователя

Администратор
Администратор
 
Раздал: 2.33 ПБ
Скачал: 1.02 ПБ
Ратио: 2.281
Сообщения: 3719
Зарегистрирован: 07 май 2010, 17:29
Medals: 1
Лучший релиз за месяц (1)
  • Личное сообщение
  • ICQ

  • Похожие торренты
    Ответы
    Просмотры
    Последнее сообщение

Вернуться в Фильмы 2016 (новинки)

Кто сейчас на конференции

Зарегистрированные пользователи: нет зарегистрированных пользователей

Ресурс не предоставляет электронные версии произведений, а занимается лишь коллекционированием и каталогизацией ссылок, присылаемых и публикуемых на форуме нашими читателями. Если вы являетесь правообладателем какого-либо представленного материала и не желаете чтобы ссылка на него находилась в нашем каталоге, свяжитесь с нами и мы незамедлительно удалим её. Файлы для обмена на трекере предоставлены пользователями сайта, и администрация не несёт ответственности за их содержание. Просьба не заливать файлы, защищенные авторскими правами, а также файлы нелегального содержания!
cron