Налетчики / Marauders (2016) BDRip 1080p от ExKinoRay | Line скачать торрент

Киноновинки, новинки кинопроката, горячие новинки

Модератор: Модераторы видео

  • Статистика раздачи
Размер: 9.61 ГБ   |  Зарегистрирован: 22 янв 2017, 05:08   |   .torrent скачан: 1403 раз
Сидеров: 792  [ 0 байт/сек ]     Личеров: 177  [ 0 байт/сек ]  
Список файлов : Кто скачал : Раздают : Скачивают : Кто благодарил : История : Не раздающие : Запрашивали сидеров : Внешние трекеры 
  

Налетчики / Marauders (2016) BDRip 1080p от ExKinoRay | Line

Сообщение Админ » 22 янв 2017, 05:08

Информация о фильме
Название: Налетчики
Оригинальное название: Marauders
Год выхода: 2016
Жанр: боевик
Режиссер: Стивен С. Миллер
В ролях: Брюс Уиллис, Кристофер Мелони, Дэйв Батиста, Адриан Гренье, Лидия Халл, Тайлер Джон Олсон, Кристофер Роб Бауэн, Ричи Чэнс, Дэнни А. Абекейзер

О фильме:
История об агенте ФБР, который нападает на след преступников, ограбивших банк и отдавших все украденные деньги на благотворительные нужды. Чем дальше продвигается расследование, тем больше главный герой убеждается в том, что у владельца банка имеются собственные секреты.


Страна: Канада
Студия: 4th Wall Entertainment, Emmett/Furla Films, Grindstone Entertainment Group, Lionsgate Home Entertainment
Продолжительность: 01:47:36
Перевод: Дублированный | Официальный звук
Файл
Кодек: MPEG-4
Качество: BDRip 1080p
Видео: 1920x804, 10.9 Mbit/s, 23.976 fps
Звук:
Аудио #01: 48 kHz, AC3, 2.0, 384 Kbps | Дублированный |
Аудио #03: 48 kHz, DTS, 5.1, 1510 kbps | Оригинал |
Субтитры: Русские, английские

General
Unique ID : 192050362024360199470823524877065536012 (0x907B8DE6F3F4FE6E9BF2F73B3928420C)
Complete name : F:VideoMarauders.2016.DD.BDRip.1080p.ExKinoRay.mkv
Format : Matroska
Format version : Version 4 / Version 2
File size : 9.61 GiB
Duration : 1 h 47 min
Overall bit rate : 12.8 Mb/s
Encoded date : UTC 2017-01-21 20:38:34
Writing application : mkvmerge v8.3.0 ('Over the Horizon') 64bit
Writing library : libebml v1.3.1 + libmatroska v1.4.2

Video
ID : 1
Format : AVC
Format/Info : Advanced Video Codec
Format profile : [email protected]
Format settings, CABAC : Yes
Format settings, ReFrames : 5 frames
Codec ID : V_MPEG4/ISO/AVC
Duration : 1 h 47 min
Bit rate : 10.9 Mb/s
Width : 1 920 pixels
Height : 804 pixels
Display aspect ratio : 2.40:1
Frame rate mode : Constant
Frame rate : 23.976 (24000/1001) FPS
Color space : YUV
Chroma subsampling : 4:2:0
Bit depth : 8 bits
Scan type : Progressive
Bits/(Pixel*Frame) : 0.296
Stream size : 8.19 GiB (85%)
Writing library : x264 core 148 r2699+6+41 29a38aa Yuuki [[email protected]:2:0 X86_64][GCC 5.3.0]
Encoding settings : cabac=1 / ref=5 / deblock=1:-3:-3 / analyse=0x3:0x113 / me=umh / subme=11 / psy=1 / fade_compensate=0.00 / psy_rd=1.00:0.05 / mixed_ref=1 / me_range=32 / chroma_me=1 / trellis=2 / 8x8dct=1 / cqm=0 / deadzone=21,11 / fast_pskip=0 / chroma_qp_offset=-2 / threads=32 / lookahead_threads=5 / sliced_threads=0 / nr=0 / decimate=1 / interlaced=0 / bluray_compat=0 / constrained_intra=0 / fgo=0 / bframes=8 / b_pyramid=2 / b_adapt=2 / b_bias=0 / direct=3 / weightb=1 / open_gop=0 / weightp=2 / keyint=250 / keyint_min=23 / scenecut=40 / intra_refresh=0 / rc_lookahead=40 / rc=crf / mbtree=0 / crf=18.4000 / qcomp=0.60 / qpmin=0:0:0 / qpmax=69:69:69 / qpstep=4 / vbv_maxrate=50000 / vbv_bufsize=40000 / crf_max=0.0 / nal_hrd=none / filler=0 / ip_ratio=1.40 / pb_ratio=1.30 / aq=3:0.90
Language : English
Default : Yes
Forced : No

Audio #1
ID : 2
Format : AC-3
Format/Info : Audio Coding 3
Mode extension : CM (complete main)
Format settings, Endianness : Big
Codec ID : A_AC3
Duration : 1 h 47 min
Bit rate mode : Constant
Bit rate : 384 kb/s
Channel(s) : 2 channels
Channel positions : Front: L R
Sampling rate : 48.0 kHz
Frame rate : 31.250 FPS (1536 spf)
Bit depth : 16 bits
Compression mode : Lossy
Stream size : 294 MiB (3%)
Title : Dub
Language : Russian
Default : Yes
Forced : No

Audio #2
ID : 3
Format : DTS
Format/Info : Digital Theater Systems
Mode : 16
Format settings, Endianness : Big
Codec ID : A_DTS
Duration : 1 h 47 min
Bit rate mode : Constant
Bit rate : 1 509 kb/s
Channel(s) : 6 channels
Channel positions : Front: L C R, Side: L R, LFE
Sampling rate : 48.0 kHz
Frame rate : 93.750 FPS (512 spf)
Bit depth : 24 bits
Compression mode : Lossy
Stream size : 1.13 GiB (12%)
Title : Original
Language : English
Default : No
Forced : No

Text #1
ID : 4
Format : UTF-8
Codec ID : S_TEXT/UTF8
Codec ID/Info : UTF-8 Plain Text
Duration : 1 h 39 min
Bit rate : 104 b/s
Count of elements : 1409
Stream size : 76.0 KiB (0%)
Title : Full
Language : Russian
Default : No
Forced : No

Text #2
ID : 5
Format : UTF-8
Codec ID : S_TEXT/UTF8
Codec ID/Info : UTF-8 Plain Text
Duration : 1 h 39 min
Bit rate : 87 b/s
Count of elements : 1540
Stream size : 63.3 KiB (0%)
Title : Full
Language : English
Default : No
Forced : No

Text #3
ID : 6
Format : UTF-8
Codec ID : S_TEXT/UTF8
Codec ID/Info : UTF-8 Plain Text
Duration : 1 h 39 min
Bit rate : 69 b/s
Count of elements : 1540
Stream size : 50.7 KiB (0%)
Title : SDH
Language : English
Default : No
Forced : No

Menu
00:00:00.000 : en:00:00:00.000
00:05:19.402 : en:00:05:19.402
00:11:57.717 : en:00:11:57.717
00:17:46.107 : en:00:17:46.107
00:24:42.648 : en:00:24:42.648
00:30:33.874 : en:00:30:33.874
00:39:07.679 : en:00:39:07.679
00:46:14.981 : en:00:46:14.981
00:51:49.356 : en:00:51:49.356
00:55:58.272 : en:00:55:58.272
01:02:08.016 : en:01:02:08.016
01:09:21.699 : en:01:09:21.699
01:16:38.594 : en:01:16:38.594
01:22:48.839 : en:01:22:48.839
01:28:22.172 : en:01:28:22.172
01:34:08.351 : en:01:34:08.351




Релиз от: Автор релиза:
   
Торрент: Зарегистрирован [22 янв 2017, 05:08] За каждые 2 ГБ. аплоада (сидирования) этого торрента начисляется бонус: 0.001 Скачать торрент
Скачать торрент
О MediaGet
[ Размер 49.04 КБ / Просмотров 65 ]

Статус:
 
Приватный: Нет (DHT включён)
Размер: 9.61 ГБ (10 319 056 138 байт)
   
Аватара пользователя

Администратор
Администратор
 
Раздал: 2.33 ПБ
Скачал: 1.02 ПБ
Ратио: 2.281
Сообщения: 3719
Зарегистрирован: 07 май 2010, 17:29
Medals: 1
Лучший релиз за месяц (1)
  • Личное сообщение
  • ICQ

  • Похожие торренты
    Ответы
    Просмотры
    Последнее сообщение

Вернуться в Фильмы 2016 (новинки)

Кто сейчас на конференции

Зарегистрированные пользователи: нет зарегистрированных пользователей

Ресурс не предоставляет электронные версии произведений, а занимается лишь коллекционированием и каталогизацией ссылок, присылаемых и публикуемых на форуме нашими читателями. Если вы являетесь правообладателем какого-либо представленного материала и не желаете чтобы ссылка на него находилась в нашем каталоге, свяжитесь с нами и мы незамедлительно удалим её. Файлы для обмена на трекере предоставлены пользователями сайта, и администрация не несёт ответственности за их содержание. Просьба не заливать файлы, защищенные авторскими правами, а также файлы нелегального содержания!
cron