Королева Катве / Queen of Katwe (2016) BDRip 720p | iTunes скачать торрент

Киноновинки, новинки кинопроката, горячие новинки

Модератор: Модераторы видео

  • Статистика раздачи
Размер: 6.41 ГБ   |  Зарегистрирован: 17 янв 2017, 22:36   |   .torrent скачан: 2252 раз
Сидеров: 476  [ 0 байт/сек ]     Личеров: 51  [ 0 байт/сек ]  
Список файлов : Кто скачал : Раздают : Скачивают : Кто благодарил : История : Не раздающие : Запрашивали сидеров : Внешние трекеры 
  

Королева Катве / Queen of Katwe (2016) BDRip 720p | iTunes

Сообщение Админ » 17 янв 2017, 22:36

Информация о фильме
Название: Королева Катве
Оригинальное название: Queen of Katwe
Год выпуска: 2016
Жанр: Драма, биография, спорт
Режиссер: Мира Наир
В ролях: Лупита Нионго, Дэвид Ойелоуо, Нтаре Мвине, Рассел Савадье, Мадина Налванга, Морис Кирйа, Чарити Роуз Пимер, Тэрин Кйазе, Эстер Табандеке, Питер Одеке

О фильме:
Молодая девушка из Уганды тренируется, чтобы стать чемпионкой мира по шахматам.



Страна: США, ЮАР
Студия: ESPN Films, Walt Disney Pictures, Walt Disney Productions
Продолжительность: 02:04:17
Перевод: Профессиональный (многоголосый, закадровый) | iTunes

Файл
Качество: BDRip (720p)
Видео: MPEG-4 AVC, 6360 Кбит/с, 1280x536
Аудио: Русский (AC3, 6 ch, 384 Кбит/с), английский (AC3, 6 ch, 640 Кбит/с)
Субтитры: Английские

Общее
Уникальный идентификатор : 207646056412650613082046247132946684483 (0x9C372D006FA4DFDBA8D407A99852DA43)
Полное имя : D:загрузкиQueen.of.Katwe.2016.P.BDRip.720p.mkv
Формат : Matroska
Версия формата : Version 2
Размер файла : 6,41 Гбайт
Продолжительность : 2 ч. 4 м.
Общий поток : 7378 Кбит/сек
Дата кодирования : UTC 2017-01-17 00:44:30
Программа кодирования : mkvmerge v7.8.0 ('River Man') 32bit built on Apr 3 2015 12:11:22
Библиотека кодирования : libebml v1.3.1 + libmatroska v1.4.2

Видео
Идентификатор : 1
Формат : AVC
Формат/Информация : Advanced Video Codec
Профиль формата : [email protected]
Параметр CABAC формата : Да
Параметр ReFrames формата : 9 кадров
Идентификатор кодека : V_MPEG4/ISO/AVC
Продолжительность : 2 ч. 4 м.
Битрейт : 6208 Кбит/сек
Ширина : 1280 пикселей
Высота : 536 пикселей
Соотношение сторон : 2,40:1
Режим частоты кадров : Постоянный
Частота кадров : 23,976 (24000/1001) кадра/сек
Цветовое пространство : YUV
Субдискретизация насыщенности : 4:2:0
Битовая глубина : 8 бит
Тип развёртки : Прогрессивная
Бит/(Пиксели*Кадры) : 0.377
Размер потока : 5,40 Гбайт (84%)
Библиотека кодирования : x264 core 142 r2431+42 c69a006 tMod [[email protected]:2:0 X86_64]
Настройки программы : cabac=1 / ref=9 / deblock=1:-3:-3 / analyse=0x3:0x113 / me=umh / subme=10 / psy=1 / fade_compensate=0.00 / psy_rd=1.00:0.05 / mixed_ref=1 / me_range=32 / chroma_me=1 / trellis=2 / 8x8dct=1 / cqm=0 / deadzone=21,11 / fast_pskip=0 / chroma_qp_offset=-2 / threads=12 / lookahead_threads=2 / sliced_threads=0 / nr=0 / decimate=1 / interlaced=0 / bluray_compat=0 / constrained_intra=0 / fgo=0 / bframes=8 / b_pyramid=2 / b_adapt=2 / b_bias=0 / direct=3 / weightb=1 / open_gop=0 / weightp=2 / keyint=250 / keyint_min=23 / scenecut=40 / intra_refresh=0 / rc_lookahead=40 / rc=crf / mbtree=0 / crf=17.0000 / qcomp=0.60 / qpmin=0:0:0 / qpmax=69:69:69 / qpstep=4 / vbv_maxrate=30000 / vbv_bufsize=30000 / crf_max=0.0 / nal_hrd=none / filler=0 / ip_ratio=1.40 / pb_ratio=1.30 / aq=3:1.00 / aq-sensitivity=10.00 / aq-factor=1.00:1.00:1.00 / aq2=0 / aq3=0
Язык : English
Default : Да
Forced : Нет
Цветовой диапазон : Limited
Коэффициенты матрицы : BT.709

Аудио #1
Идентификатор : 2
Формат : AC-3
Формат/Информация : Audio Coding 3
Расширение режима : CM (complete main)
Параметр Endianness формата : Big
Идентификатор кодека : A_AC3
Продолжительность : 2 ч. 4 м.
Вид битрейта : Постоянный
Битрейт : 384 Кбит/сек
Каналы : 6 каналов
Расположение каналов : Front: L C R, Side: L R, LFE
Частота : 48,0 КГц
Частота кадров : 31,250 кадров/сек (1536 spf)
Битовая глубина : 16 бит
Метод сжатия : С потерями
Размер потока : 342 Мбайт (5%)
Заголовок : iTunes
Язык : Russian
Default : Да
Forced : Нет

Аудио #2
Идентификатор : 3
Формат : AC-3
Формат/Информация : Audio Coding 3
Расширение режима : CM (complete main)
Параметр Endianness формата : Big
Идентификатор кодека : A_AC3
Продолжительность : 2 ч. 4 м.
Вид битрейта : Постоянный
Битрейт : 640 Кбит/сек
Каналы : 6 каналов
Расположение каналов : Front: L C R, Side: L R, LFE
Частота : 48,0 КГц
Частота кадров : 31,250 кадров/сек (1536 spf)
Битовая глубина : 16 бит
Метод сжатия : С потерями
Размер потока : 570 Мбайт (9%)
Язык : English
Default : Нет
Forced : Нет

Текст
Идентификатор : 4
Формат : UTF-8
Идентификатор кодека : S_TEXT/UTF8
Идентификатор кодека/Информация : UTF-8 Plain Text
Язык : English
Default : Нет
Forced : Нет

Меню
00:00:00.000 : en:00:00:00.000
00:05:51.893 : en:00:05:51.893
00:13:42.071 : en:00:13:42.071
00:18:01.038 : en:00:18:01.038
00:22:59.378 : en:00:22:59.378
00:32:52.762 : en:00:32:52.762
00:41:16.516 : en:00:41:16.516
00:48:40.543 : en:00:48:40.543
00:56:02.651 : en:00:56:02.651
01:00:29.876 : en:01:00:29.876
01:06:12.802 : en:01:06:12.802
01:13:24.775 : en:01:13:24.775
01:24:09.294 : en:01:24:09.294
01:32:47.479 : en:01:32:47.479
01:40:04.081 : en:01:40:04.081
01:47:09.632 : en:01:47:09.632
01:54:20.645 : en:01:54:20.645
01:57:34.798 : en:01:57:34.798


   
Торрент: Зарегистрирован [17 янв 2017, 22:36] За каждые 2 ГБ. аплоада (сидирования) этого торрента начисляется бонус: 0.001 Скачать торрент
Скачать торрент
О MediaGet
[ Размер 33.05 КБ / Просмотров 50 ]

Статус:
 
Приватный: Нет (DHT включён)
Размер: 6.41 ГБ (6 886 227 027 байт)
   
Аватара пользователя

Администратор
Администратор
 
Раздал: 2.33 ПБ
Скачал: 1.02 ПБ
Ратио: 2.281
Сообщения: 3719
Зарегистрирован: 07 май 2010, 17:29
Medals: 1
Лучший релиз за месяц (1)
  • Личное сообщение
  • ICQ

  • Похожие торренты
    Ответы
    Просмотры
    Последнее сообщение

Вернуться в Фильмы 2016 (новинки)

Кто сейчас на конференции

Зарегистрированные пользователи: 132231

Ресурс не предоставляет электронные версии произведений, а занимается лишь коллекционированием и каталогизацией ссылок, присылаемых и публикуемых на форуме нашими читателями. Если вы являетесь правообладателем какого-либо представленного материала и не желаете чтобы ссылка на него находилась в нашем каталоге, свяжитесь с нами и мы незамедлительно удалим её. Файлы для обмена на трекере предоставлены пользователями сайта, и администрация не несёт ответственности за их содержание. Просьба не заливать файлы, защищенные авторскими правами, а также файлы нелегального содержания!
cron