Война против всех / War on Everyone (2016) WEB-DLRip | A скачать торрент

Киноновинки, новинки кинопроката, горячие новинки

Модератор: Модераторы видео

  • Статистика раздачи
Размер: 1.46 ГБ   |  Зарегистрирован: 08 янв 2017, 03:44   |   .torrent скачан: 3901 раз
Сидеров: 1179  [ 0 байт/сек ]     Личеров: 104  [ 0 байт/сек ]  
Список файлов : Кто скачал : Раздают : Скачивают : Кто благодарил : История : Не раздающие : Запрашивали сидеров : Внешние трекеры 
  

Война против всех / War on Everyone (2016) WEB-DLRip | A

Сообщение Админ » 08 янв 2017, 03:44

Производство: Великобритания, Head Gear Films, Kreo Films FZ, Metrol Technology
Жанр: Комедия
Продолжительность: 01:37:38
Перевод: Авторский (одноголосый, закадровый) Дмитрий "Гоблин" Пучков (запись с кинотеатра)
Субтитры: Отсутствуют
Режиссер: Джон Майкл МакДона
Актеры: Александр Скарсгард, Майкл Пенья, Тесса Томпсон, Тео Джеймс, Стефани Сигман, Малкольм Баррет, Тейт Флетчер, Калеб Лэндри Джонс, Пол Райзер, Кит Джардин

Описание:
Двое коррумпированных копов-отморозков из Нью-Мексико прессуют всех, кто попадается им под руку… или под колеса Авто. Судьба подкидывает им шанс срубить целый миллион долларов, но на смачный куш также претендует эксцентричный английский лорд не без странных пристрастий. В борьбе за заслуженный улов напарники случайно узнают о стрёмных секретах красавчика-лорда и впрягаются нести возмездие. Плохим копам не терпится попробовать нечто совсем новое — борьбу за справедливость… ну, за то, как они понимают справедливость.



Качество видео: WEB-DLRip
Видео: 720x304 (2.37:1), 24.000 fps, XviD build 73 ~1943 kbps, 0.37 bit/pixel
Аудио: 48 kHz, AC3 Dolby Digital, 2/0 (L,R) ch, ~192 kbps
Сэмпл
Формат : AVI
Формат/Информация : Audio Video Interleave
Размер файла : 1,46 Гбайт
Продолжительность : 1 ч. 37 м.
Общий поток : 2145 Кбит/сек
Программа кодирования : VirtualDubMod 1.5.10.3 | http://www.virtualdub-fr.org || (build 2550/release)
Библиотека кодирования : VirtualDubMod build 2550/release

Видео
Идентификатор : 0
Формат : MPEG-4 Visual
Профиль формата : Advanced [email protected]
Параметр BVOP формата : 1
Параметр QPel формата : Нет
Параметр GMC формата : Без точки перехода
Параметр матрицы формата : Выборочная
Идентификатор кодека : XVID
Идентификатор кодека/Подсказка : XviD
Продолжительность : 1 ч. 37 м.
Битрейт : 1943 Кбит/сек
Ширина : 720 пикселей
Высота : 304 пикселя
Соотношение сторон : 2,35:1
Частота кадров : 24,000 кадра/сек
Цветовое пространство : YUV
Субдискретизация насыщенности : 4:2:0
Битовая глубина : 8 бит
Тип развёртки : Прогрессивная
Метод сжатия : С потерями
Бит/(Пиксели*Кадры) : 0.370
Размер потока : 1,33 Гбайт (91%)
Библиотека кодирования : XviD 73

Аудио
Идентификатор : 1
Формат : AC-3
Формат/Информация : Audio Coding 3
Расширение режима : CM (complete main)
Параметр Endianness формата : Big
Идентификатор кодека : 2000
Продолжительность : 1 ч. 37 м.
Вид битрейта : Постоянный
Битрейт : 192 Кбит/сек
Каналы : 2 канала
Расположение каналов : Front: L R
Частота : 48,0 КГц
Частота кадров : 31,250 кадров/сек (1536 spf)
Битовая глубина : 16 бит
Метод сжатия : С потерями
Размер потока : 134 Мбайт (9%)
Выравнивание : Разделение по промежуткам
Продолжительность промежутка : 42 мс. (1,00 видеокадр)
Время предзагрузки промежутка : 500 мс.

Скриншоты:
   
Торрент: Зарегистрирован [08 янв 2017, 03:44] Скачать торрент
Скачать торрент
О MediaGet
[ Размер 15.47 КБ / Просмотров 47 ]

Статус:
 
Приватный: Нет (DHT включён)
Размер: 1.46 ГБ (1 570 723 840 байт)
   
Аватара пользователя

Администратор
Администратор
 
Раздал: 2.33 ПБ
Скачал: 1.02 ПБ
Ратио: 2.281
Сообщения: 3719
Зарегистрирован: 07 май 2010, 17:29
Medals: 1
Лучший релиз за месяц (1)
  • Личное сообщение
  • ICQ

  • Похожие торренты
    Ответы
    Просмотры
    Последнее сообщение

Вернуться в Фильмы 2016 (новинки)

Кто сейчас на конференции

Зарегистрированные пользователи: нет зарегистрированных пользователей

Ресурс не предоставляет электронные версии произведений, а занимается лишь коллекционированием и каталогизацией ссылок, присылаемых и публикуемых на форуме нашими читателями. Если вы являетесь правообладателем какого-либо представленного материала и не желаете чтобы ссылка на него находилась в нашем каталоге, свяжитесь с нами и мы незамедлительно удалим её. Файлы для обмена на трекере предоставлены пользователями сайта, и администрация не несёт ответственности за их содержание. Просьба не заливать файлы, защищенные авторскими правами, а также файлы нелегального содержания!
cron